<?xml version="1.0" standalone="no"?>
<!DOCTYPE svg PUBLIC "-//W3C//DTD SVG 1.1//EN" "http://www.w3.org/Graphics/SVG/1.1/DTD/svg11.dtd" >
<svg xmlns="http://www.w3.org/2000/svg">
<metadata>
This is a custom SVG webfont generated by Font Squirrel.
Copyright   : Copyright c 2006 The Hoefler Type Foundry Inc dba Hoefler  FrereJones All Rights Reserved
Designer    : Hoefler  FrereJones
Foundry     : Hoefler  FrereJones
Foundry URL : wwwtypographycom
</metadata>
<defs>
<font id="VerlagBookItalic" horiz-adv-x="461" >
<font-face units-per-em="1000" ascent="800" descent="-200" />
<missing-glyph horiz-adv-x="215" />
<glyph unicode="ffi" horiz-adv-x="755" d="M386 728l-28 -70q-20 5 -38 5q-46 0 -61.5 -21t-30.5 -96l-25 -126h105l-14 -68h-104l-110 -568h-77l111 568h-77v7l91 69l22 108q21 109 60 155t113 46q30 0 63 -9zM662 728l-28 -70q-20 5 -38 5q-46 0 -61.5 -21t-30.5 -96l-25 -126h105l-14 -68h-104l-110 -568h-77 l111 568h-77v7l91 69l22 108q21 109 60 155t113 46q30 0 63 -9zM734 420l-82 -420h-79l82 420h79zM772 564q0 -20 -14.5 -34.5t-34.5 -14.5q-21 0 -35.5 14.5t-14.5 34.5t14.5 35t35.5 15q20 0 34.5 -15t14.5 -35z" />
<glyph unicode="ffl" horiz-adv-x="755" d="M386 728l-28 -70q-20 5 -38 5q-46 0 -61.5 -21t-30.5 -96l-25 -126h105l-14 -68h-104l-110 -568h-77l111 568h-77v7l91 69l22 108q21 109 60 155t113 46q30 0 63 -9zM662 728l-28 -70q-20 5 -38 5q-46 0 -61.5 -21t-30.5 -96l-25 -126h105l-14 -68h-104l-110 -568h-77 l111 568h-77v7l91 69l22 108q21 109 60 155t113 46q30 0 63 -9zM794 733l-142 -733h-79l142 733h79z" />
<glyph unicode="ff" horiz-adv-x="552" d="M662 728l-28 -70q-20 5 -38 5q-46 0 -61.5 -21t-30.5 -96l-25 -126h105l-14 -68h-104l-110 -568h-77l111 568h-77v7l91 69l22 108q21 109 60 155t113 46q30 0 63 -9zM386 728l-28 -70q-20 5 -38 5q-46 0 -61.5 -21t-30.5 -96l-25 -126h105l-14 -68h-104l-110 -568h-77 l111 568h-77v7l91 69l22 108q21 109 60 155t113 46q30 0 63 -9z" />
<glyph unicode="fi" horiz-adv-x="479" d="M386 728l-28 -70q-20 5 -38 5q-46 0 -61.5 -21t-30.5 -96l-25 -126h105l-14 -68h-104l-110 -568h-77l111 568h-77v7l91 69l22 108q21 109 60 155t113 46q30 0 63 -9zM458 420l-82 -420h-79l82 420h79zM496 564q0 -20 -14.5 -34.5t-34.5 -14.5q-21 0 -35.5 14.5 t-14.5 34.5t14.5 35t35.5 15q20 0 34.5 -15t14.5 -35z" />
<glyph unicode="fl" horiz-adv-x="479" d="M518 733l-142 -733h-79l142 733h79zM386 728l-28 -70q-20 5 -38 5q-46 0 -61.5 -21t-30.5 -96l-25 -126h105l-14 -68h-104l-110 -568h-77l111 568h-77v7l91 69l22 108q21 109 60 155t113 46q30 0 63 -9z" />
<glyph unicode=" "  horiz-adv-x="215" />
<glyph unicode="&#x09;" horiz-adv-x="215" />
<glyph unicode="&#xa0;" horiz-adv-x="215" />
<glyph unicode="!" horiz-adv-x="220" d="M258 733l-128 -558l-55 6l93 552h90zM125 41q0 -20 -14.5 -34.5t-34.5 -14.5t-34.5 14.5t-14.5 34.5t14.5 34.5t34.5 14.5t34.5 -14.5t14.5 -34.5z" />
<glyph unicode="&#x22;" horiz-adv-x="377" d="M279 644l-162 -177l-39 29l132 196zM432 633l-163 -178l-38 29l132 198z" />
<glyph unicode="#" horiz-adv-x="590" d="M577 427l-14 -64h-106l-34 -150h107l-14 -63h-107l-33 -150h-70l33 150h-125l-33 -150h-70l33 150h-107l14 63h107l33 150h-107l14 64h107l33 149h71l-33 -149h124l34 149h70l-33 -149h106zM386 363h-124l-34 -150h125z" />
<glyph unicode="$" horiz-adv-x="439" d="M356 646l-16 -66q55 -12 94 -44l-42 -60q-36 26 -68 36l-47 -198q55 -34 80 -66t25 -80q0 -79 -53 -127t-128 -51l-16 -65l-61 5l15 65q-63 12 -129 63l45 59q50 -43 101 -54l50 206q-55 35 -80 66t-25 78q0 69 49 118.5t128 53.5l16 66zM307 158q0 42 -47 77l-42 -175 q41 6 65 30t24 68zM176 422q0 -42 46 -74l40 169q-40 -5 -63 -31t-23 -64z" />
<glyph unicode="%" horiz-adv-x="666" d="M345 466q0 -82 -50 -132q-38 -38 -93 -38q-48 0 -78 34t-30 86q0 82 50 132q38 38 93 38q48 0 78 -34t30 -86zM665 556l-591 -576l-39 40l590 576zM285 460q0 31 -14 50.5t-40 19.5t-45 -19q-32 -32 -32 -89q0 -31 14 -50.5t40 -19.5t45 19q32 32 32 89zM605 160 q0 -82 -50 -132q-38 -38 -93 -38q-48 0 -78 34t-30 86q0 82 50 132q38 38 93 38q48 0 78 -34t30 -86zM545 154q0 31 -14 50.5t-40 19.5t-45 -19q-32 -32 -32 -89q0 -31 14 -50.5t40 -19.5t45 19q32 32 32 89z" />
<glyph unicode="&#x26;" horiz-adv-x="608" d="M571 230q-58 -68 -122 -124q35 -40 67 -71l-51 -51q-33 29 -75 76q-100 -70 -184 -70q-77 0 -122 40.5t-45 109.5q0 59 46.5 108t127.5 76q-22 54 -22 93q0 68 53 118.5t125 50.5q58 0 94.5 -37t36.5 -85q0 -57 -47 -105.5t-137 -74.5q44 -69 90 -128q61 54 115 123z M348 110q-68 84 -106 156q-59 -16 -92 -48.5t-33 -73.5q0 -39 24 -62t71 -23q62 0 136 51zM425 456q0 29 -17.5 48t-47.5 19q-37 0 -65.5 -31t-28.5 -70q0 -41 22 -84q137 39 137 118z" />
<glyph unicode="'" horiz-adv-x="224" d="M279 644l-162 -177l-39 29l132 196z" />
<glyph unicode="(" horiz-adv-x="370" d="M465 687q-160 -70 -250.5 -208t-90.5 -294q0 -106 43 -200.5t129 -163.5l-42 -50q-99 84 -149 189.5t-50 220.5q0 175 103 328t286 237z" />
<glyph unicode=")" horiz-adv-x="370" d="M334 336q0 -175 -103 -328t-286 -237l-21 59q160 70 250.5 208t90.5 294q0 106 -43 200.5t-129 163.5l42 50q99 -84 149 -189.5t50 -220.5z" />
<glyph unicode="*" horiz-adv-x="380" d="M415 567l-111 -7l52 -98l-60 -27l-43 102l-78 -78l-45 47l85 71l-100 49l32 56l95 -58l16 109l64 -13l-26 -106l110 18z" />
<glyph unicode="+" horiz-adv-x="420" d="M402 322l-13 -68h-134l-28 -141h-72l28 141h-134l13 68h134l27 141h72l-27 -141h134z" />
<glyph unicode="," horiz-adv-x="220" d="M129 35q0 -84 -129 -160l-11 16q61 49 84 99q-20 4 -31 18.5t-11 32.5q0 20 14.5 34.5t34.5 14.5q21 0 35 -15.5t14 -39.5z" />
<glyph unicode="-" horiz-adv-x="326" d="M288 276l-13 -68h-226l14 68h225z" />
<glyph unicode="." horiz-adv-x="220" d="M129 41q0 -20 -14.5 -34.5t-34.5 -14.5t-34.5 14.5t-14.5 34.5t14.5 34.5t34.5 14.5t34.5 -14.5t14.5 -34.5z" />
<glyph unicode="/" horiz-adv-x="337" d="M435 733l-422 -949h-75l422 949h75z" />
<glyph unicode="0" horiz-adv-x="531" d="M505 367q0 -90 -30 -175.5t-80 -135.5q-66 -66 -152 -66t-135.5 63.5t-49.5 155.5q0 90 30 175.5t80 135.5q66 66 152 66t135.5 -63.5t49.5 -155.5zM423 360q0 71 -28.5 115t-79.5 44q-45 0 -82 -37q-43 -43 -68 -119.5t-25 -146.5q0 -71 28.5 -115t79.5 -44q45 0 82 37 q43 43 68 119.5t25 146.5z" />
<glyph unicode="1" horiz-adv-x="341" d="M308 589l-115 -589h-79l94 483l-104 -35l-14 69l204 72h14z" />
<glyph unicode="2" horiz-adv-x="436" d="M427 433q0 -52 -24 -89.5t-102 -121.5q-76 -82 -152 -151h225l-13 -71h-369l-3 11l147 144l93 94q68 66 94 103.5t26 76.5q0 37 -28 61.5t-74 24.5q-68 0 -137 -49l-17 67q76 54 156 53q79 -1 128.5 -47t49.5 -106z" />
<glyph unicode="3" horiz-adv-x="422" d="M470 576l3 -11l-244 -235q69 -16 107.5 -59t38.5 -99q0 -78 -55 -130t-151 -52q-75 0 -168 42l32 63q79 -35 141 -35t92.5 28.5t30.5 75.5q0 54 -49.5 84t-147.5 30l-4 9l224 217h-220l14 72h356z" />
<glyph unicode="4" horiz-adv-x="483" d="M462 240l-13 -67h-96l-34 -175h-73l34 175h-251l4 25l376 389h25l-68 -347h96zM293 240l34 176l-168 -176h134z" />
<glyph unicode="5" horiz-adv-x="460" d="M452 576l-14 -72h-224l-31 -153h1q106 0 164 -49t58 -121q0 -82 -57.5 -136.5t-151.5 -54.5q-86 0 -175 42l35 64q78 -38 139 -38t95.5 31.5t34.5 80.5q0 55 -43 85t-122 30q-25 0 -54 -3l-7 12l54 282h298z" />
<glyph unicode="6" horiz-adv-x="482" d="M436 198q0 -82 -58 -145t-150 -63q-73 0 -126 54t-53 134q0 55 20 110t62.5 111t120 107t182.5 88l22 -66q-97 -28 -172.5 -80.5t-116.5 -119.5q43 35 105 35q75 0 119.5 -48t44.5 -117zM356 192q0 49 -27 80t-78 31q-56 0 -90 -38t-34 -93q0 -49 32 -82.5t78 -33.5 q54 0 86.5 39.5t32.5 96.5z" />
<glyph unicode="7" horiz-adv-x="424" d="M473 576l-360 -576h-84l321 504h-262l14 72h371z" />
<glyph unicode="8" horiz-adv-x="481" d="M462 441q0 -108 -108 -151q67 -45 67 -124q0 -72 -55.5 -124t-140.5 -52q-79 0 -127.5 41.5t-48.5 111.5q0 53 33 97t90 62q-58 41 -58 111q0 66 53 119.5t134 53.5q72 0 116.5 -42t44.5 -103zM386 433q0 35 -22.5 61.5t-65.5 26.5q-46 0 -77 -32.5t-31 -73.5 q0 -40 24.5 -65t64.5 -25q46 0 76.5 33t30.5 75zM342 169q0 38 -25.5 65.5t-71.5 27.5q-52 0 -84 -33t-32 -81q0 -41 27.5 -67t73.5 -26q53 0 82.5 33t29.5 81z" />
<glyph unicode="9" horiz-adv-x="472" d="M462 400q0 -119 -92 -233t-293 -185l-22 66q192 56 287 196q-48 -24 -90 -24q-76 0 -123.5 47.5t-47.5 115.5q0 83 58 143t146 60q84 0 130.5 -54.5t46.5 -131.5zM383 413q0 47 -30 77t-76 30q-52 0 -84.5 -37t-32.5 -93q0 -49 28 -78.5t79 -29.5q56 0 86 37.5t30 93.5z " />
<glyph unicode=":" horiz-adv-x="220" d="M183 320q0 -20 -14.5 -34.5t-35.5 -14.5q-20 0 -34.5 14.5t-14.5 34.5t14.5 34.5t34.5 14.5q21 0 35.5 -14.5t14.5 -34.5zM129 41q0 -20 -14.5 -34.5t-34.5 -14.5t-34.5 14.5t-14.5 34.5t14.5 34.5t34.5 14.5t34.5 -14.5t14.5 -34.5z" />
<glyph unicode=";" horiz-adv-x="220" d="M183 320q0 -20 -14.5 -34.5t-35.5 -14.5q-20 0 -34.5 14.5t-14.5 34.5t14.5 34.5t34.5 14.5q21 0 35.5 -14.5t14.5 -34.5zM129 35q0 -84 -129 -160l-11 16q61 49 84 99q-20 4 -31 18.5t-11 32.5q0 20 14.5 34.5t34.5 14.5q21 0 35 -15.5t14 -39.5z" />
<glyph unicode="&#x3c;" horiz-adv-x="394" d="M409 472l-255 -169l180 -211l-57 -43l-227 266l322 212z" />
<glyph unicode="=" horiz-adv-x="400" d="M354 250l-13 -68h-293l13 68h293zM382 394l-13 -68h-293l13 68h293z" />
<glyph unicode="&#x3e;" horiz-adv-x="394" d="M372 262l-322 -213l-37 55l255 170l-180 211l57 42z" />
<glyph unicode="?" horiz-adv-x="374" d="M422 590q0 -42 -20 -77.5t-42 -54.5t-60 -45q-71 -49 -91 -72q-24 -28 -30 -59l-13 -73l-74 7l19 96q4 22 15 41t33 38t34 28t42 29q35 24 54 39t35.5 40.5t16.5 53.5q0 36 -29 60t-94 24q-39 0 -90 -12l-8 72q63 14 115 14q86 0 136.5 -41.5t50.5 -107.5zM146 41 q0 -20 -14.5 -34.5t-34.5 -14.5t-34.5 14.5t-14.5 34.5t14.5 34.5t34.5 14.5t34.5 -14.5t14.5 -34.5z" />
<glyph unicode="@" horiz-adv-x="684" d="M656 338q0 -76 -46 -135.5t-108 -59.5q-58 0 -74 43q-45 -43 -96 -43q-44 0 -69.5 22t-25.5 53q0 36 26.5 61.5t70.5 25.5q46 0 81 -22q4 16 4 28q0 47 -71 47q-24 0 -52 -5l2 50q31 6 67 6q59 0 88 -25.5t29 -70.5q0 -9 -4 -35l-9 -47q-4 -18 6.5 -29.5t29.5 -11.5 q38 0 64.5 43.5t26.5 96.5q0 86 -56 143.5t-153 57.5q-116 0 -189 -80t-73 -191q0 -91 63.5 -155t184.5 -64q41 0 96 12l4 -54q-61 -11 -114 -11q-74 0 -132.5 24.5t-93 64t-52 84.5t-17.5 89q0 138 91.5 236t231.5 98q121 0 195 -73t74 -173zM408 244q-34 18 -64 18 q-23 0 -36 -10.5t-13 -28.5q0 -16 13 -26.5t36 -10.5q29 0 58 29z" />
<glyph unicode="A" horiz-adv-x="662" d="M614 0h-85l-43 203h-316l-124 -203h-85l465 746h12zM471 270l-67 315l-193 -315h260z" />
<glyph unicode="B" horiz-adv-x="544" d="M545 555q0 -60 -39.5 -113t-110.5 -73q110 -47 110 -147q0 -102 -75.5 -165t-235.5 -63q-66 0 -156 18l140 716q73 10 136 10q110 0 170.5 -54.5t60.5 -128.5zM463 547q0 54 -39.5 88.5t-108.5 34.5q-35 0 -70 -6l-50 -255q27 -3 86 -3q92 0 137 39.5t45 101.5zM424 210 q0 61 -46 97.5t-130 36.5q-40 0 -66 -3l-53 -270q42 -8 98 -8q87 0 142 40t55 107z" />
<glyph unicode="C" horiz-adv-x="696" d="M720 670l-40 -63q-82 66 -201 66q-138 0 -232 -104t-94 -247q0 -119 72 -191t178 -72q95 0 200 62l31 -64q-111 -69 -241 -69t-226 91t-96 235q0 121 61 221.5t157 155t202 54.5q65 0 127 -22t102 -53z" />
<glyph unicode="D" horiz-adv-x="711" d="M223 -6q-82 0 -185 15l139 717q72 12 157 12q166 0 267 -101q90 -90 90 -228q0 -180 -127 -297.5t-341 -117.5zM337 670q-51 0 -93 -7l-115 -593q49 -7 119 -7q156 0 258.5 96t102.5 240q0 125 -73 198t-199 73z" />
<glyph unicode="E" horiz-adv-x="551" d="M589 733l-14 -72h-331l-49 -253h296l-14 -72h-296l-52 -264h332l-14 -72h-411l143 733h410z" />
<glyph unicode="F" horiz-adv-x="520" d="M589 733l-14 -72h-331l-52 -267h297l-14 -72h-297l-63 -322h-79l143 733h410z" />
<glyph unicode="G" horiz-adv-x="747" d="M707 363l-58 -297q-63 -41 -121 -59.5t-135 -18.5q-130 0 -226 91t-96 235q0 121 61 221.5t156.5 155t201.5 54.5q66 0 133 -22t106 -53l-40 -63q-36 29 -94 47.5t-117 18.5q-137 0 -231 -104t-94 -247q0 -119 71.5 -191t178.5 -72q100 0 175 48l36 184h-195l14 72h274z " />
<glyph unicode="H" horiz-adv-x="694" d="M713 733l-143 -733h-79l65 336h-375l-66 -336h-79l143 733h79l-63 -325h375l64 325h79z" />
<glyph unicode="I" horiz-adv-x="246" d="M264 733l-143 -733h-79l143 733h79z" />
<glyph unicode="J" horiz-adv-x="442" d="M464 733l-102 -524q-43 -221 -223 -221q-46 0 -88.5 16.5t-70.5 41.5l48 57q48 -42 115 -42q62 0 94 37.5t48 120.5l100 514h79z" />
<glyph unicode="K" horiz-adv-x="583" d="M661 733l-394 -360l267 -373h-100l-248 360l-71 -360h-79l143 733h79l-66 -341l362 341h107z" />
<glyph unicode="L" horiz-adv-x="520" d="M460 72l-14 -72h-410l143 733h79l-129 -661h331z" />
<glyph unicode="M" horiz-adv-x="836" d="M842 745l-117 -745h-81l90 510l-331 -435h-10l-176 453l-109 -528h-81l172 745l14 2l205 -552l407 552z" />
<glyph unicode="N" horiz-adv-x="707" d="M726 733l-145 -744l-11 -3l-345 575l-110 -561h-79l145 743l16 4l342 -566l108 552h79z" />
<glyph unicode="O" horiz-adv-x="815" d="M797 414q0 -73 -28 -147.5t-77.5 -137t-127 -102t-167.5 -39.5q-143 0 -234 90.5t-91 240.5q0 73 28 147.5t77.5 137t127 102t167.5 39.5q143 0 234 -91t91 -240zM717 414q0 116 -66.5 187.5t-177.5 71.5q-137 0 -228.5 -104t-91.5 -251q0 -115 66 -187t177 -72 q137 0 229 104t92 251z" />
<glyph unicode="P" horiz-adv-x="539" d="M562 516q0 -117 -82 -190t-231 -73q-44 0 -83 6l-51 -259h-79l142 728q60 10 117 10q128 0 197.5 -63t69.5 -159zM480 510q0 67 -44.5 111.5t-127.5 44.5q-32 0 -64 -5l-64 -330q44 -6 81 -6q106 0 162.5 52t56.5 133z" />
<glyph unicode="Q" horiz-adv-x="815" d="M797 414q0 -83 -35 -167.5t-98 -146.5l61 -72l-58 -53l-63 75q-92 -62 -207 -62q-143 0 -234 90.5t-91 240.5q0 73 28 147.5t77.5 137t127 102t167.5 39.5q143 0 234 -91t91 -240zM717 414q0 116 -66.5 187.5t-177.5 71.5q-137 0 -228.5 -104t-91.5 -251q0 -115 66 -187 t177 -72q87 0 160 46l-111 131l59 53l113 -134q100 105 100 259z" />
<glyph unicode="R" horiz-adv-x="576" d="M562 530q0 -84 -52.5 -146.5t-146.5 -86.5l158 -297h-96l-145 285q-8 -1 -25 -1q-36 0 -83 5l-57 -289h-79l142 729q56 9 132 9q117 0 184.5 -58.5t67.5 -149.5zM480 523q0 64 -42.5 103.5t-120.5 39.5q-45 0 -73 -5l-58 -302q54 -4 82 -4q104 0 158 46t54 122z" />
<glyph unicode="S" horiz-adv-x="495" d="M516 685l-42 -64q-61 49 -137 49q-63 0 -98.5 -38t-35.5 -93q0 -31 17.5 -58t36 -41.5t54.5 -37.5q35 -23 52.5 -36t42.5 -38t36 -55t11 -68q0 -88 -59 -152.5t-171 -64.5q-58 0 -116 22t-101 59l43 64q83 -70 174 -70q75 0 112 36t37 96q0 26 -8.5 47.5t-31 42.5t-35 30 l-46.5 32q-41 27 -64 46t-44 55.5t-21 80.5q0 88 63 152t162 64q93 0 169 -60z" />
<glyph unicode="T" horiz-adv-x="597" d="M673 733l-14 -72h-236l-129 -661h-79l129 661h-236l14 72h551z" />
<glyph unicode="U" horiz-adv-x="678" d="M705 733l-94 -483q-25 -128 -101 -195t-199 -67q-107 0 -170 62t-63 169q0 33 8 75l85 439h79l-87 -450q-6 -33 -6 -62q0 -76 43 -119t125 -43q87 0 137.5 49t71.5 157l92 468h79z" />
<glyph unicode="V" horiz-adv-x="656" d="M750 733l-462 -746h-13l-171 746h83l126 -583l345 583h92z" />
<glyph unicode="W" horiz-adv-x="898" d="M987 733l-347 -745l-14 -2l-114 576l-328 -576l-18 2l-57 745h83l38 -533l308 539h11l109 -546l238 540h91z" />
<glyph unicode="X" horiz-adv-x="643" d="M727 733l-328 -370l185 -363h-87l-153 308l-266 -308h-98l329 369l-186 364h87l153 -309l266 309h98z" />
<glyph unicode="Y" horiz-adv-x="584" d="M681 733l-326 -412l-63 -321h-79l63 324l-171 409h80l144 -343l261 343h91z" />
<glyph unicode="Z" horiz-adv-x="599" d="M659 721l-522 -649h391l-14 -72h-512l-3 11l523 650h-371l14 72h492z" />
<glyph unicode="[" horiz-adv-x="293" d="M372 733l-12 -64h-121l-160 -822h121l-12 -63h-191l184 949h191z" />
<glyph unicode="\" horiz-adv-x="337" d="M242 -216h-68l-88 949h67z" />
<glyph unicode="]" horiz-adv-x="245" d="M317 733l-184 -949h-191l12 64h121l160 822h-121l12 63h191z" />
<glyph unicode="^" horiz-adv-x="440" d="M415 485h-76l-50 83l-84 -83h-84l165 160h31z" />
<glyph unicode="_" horiz-adv-x="520" d="M492 68l-13 -68h-520l13 68h520z" />
<glyph unicode="`" horiz-adv-x="440" d="M382 516l-34 -42l-162 106l52 65z" />
<glyph unicode="a" horiz-adv-x="425" d="M386 293q0 -25 -6 -57l-47 -236h-73l8 42q-55 -50 -124 -50q-52 0 -89.5 33t-37.5 90q0 61 47 102t123 41q68 0 113 -32l5 26q4 24 4 33q0 32 -21 52.5t-59 20.5q-48 0 -108 -23l-7 70q71 23 126 23q146 0 146 -135zM288 163q-39 34 -103 34q-40 0 -67 -21.5t-27 -55.5 q0 -30 19.5 -47.5t56.5 -17.5q55 0 110 52z" />
<glyph unicode="b" horiz-adv-x="476" d="M441 256q0 -107 -68 -185.5t-163 -78.5q-62 0 -112 39l-6 -31h-76l142 733h79l-66 -342q50 37 116 37q70 0 112 -50.5t42 -121.5zM364 244q0 53 -28.5 84.5t-77.5 31.5q-55 0 -101 -41l-44 -227q37 -34 94 -34q66 0 111.5 53.5t45.5 132.5z" />
<glyph unicode="c" horiz-adv-x="412" d="M418 384l-37 -57q-53 34 -109 34q-67 0 -113 -53.5t-46 -126.5q0 -58 37 -90t93 -32q53 0 97 22l13 -62q-68 -27 -127 -27q-75 0 -131.5 49t-56.5 137q0 98 71 174t176 76q71 0 133 -44z" />
<glyph unicode="d" horiz-adv-x="473" d="M517 733l-142 -733h-74l6 31q-51 -39 -113 -39q-64 0 -112.5 51.5t-48.5 125.5q0 106 67.5 182.5t169.5 76.5q58 0 104 -31l64 336h79zM361 330q-40 32 -94 32q-67 0 -112 -50t-45 -129q0 -58 29.5 -90.5t80.5 -32.5q54 0 95 35z" />
<glyph unicode="e" horiz-adv-x="451" d="M221 -8q-81 0 -133 42t-52 130q0 100 68 182t167 82q73 0 113.5 -48t40.5 -118q0 -29 -10 -66h-303q-1 -7 -1 -25q0 -56 32 -84t87 -28q47 0 108 22l13 -64q-63 -25 -130 -25zM128 255h221q1 7 1 20q-1 38 -24 62t-62 24q-43 0 -79.5 -29.5t-56.5 -76.5z" />
<glyph unicode="f" horiz-adv-x="276" d="M386 728l-28 -70q-20 5 -38 5q-46 0 -61.5 -21t-30.5 -96l-25 -126h105l-14 -68h-104l-110 -568h-77l111 568h-77v7l91 69l22 108q21 109 60 155t113 46q30 0 63 -9z" />
<glyph unicode="g" horiz-adv-x="477" d="M458 420l-89 -459q-18 -93 -74 -139t-140 -46q-65 0 -135 26l25 69q60 -22 113 -22q58 0 89 24.5t42 80.5l13 65q-43 -27 -95 -27q-71 0 -122.5 52t-51.5 125q0 106 68 182.5t170 76.5q56 0 108 -33l5 25h74zM362 330q-39 31 -94 31q-67 0 -112.5 -50t-45.5 -128 q0 -58 31.5 -91t83.5 -33q49 0 91 36z" />
<glyph unicode="h" d="M427 318q0 -22 -4 -42l-54 -276h-79l52 264q4 17 4 35q0 63 -64 63q-62 0 -131 -71l-56 -291h-79l142 733h79l-74 -380q81 75 162 75q51 0 76.5 -30t25.5 -80z" />
<glyph unicode="i" horiz-adv-x="203" d="M220 564q0 -20 -14.5 -34.5t-34.5 -14.5q-21 0 -35.5 14.5t-14.5 34.5t14.5 35t35.5 15q20 0 34.5 -15t14.5 -35zM182 420l-82 -420h-79l82 420h79z" />
<glyph unicode="j" horiz-adv-x="208" d="M225 564q0 -20 -14.5 -34.5t-34.5 -14.5q-21 0 -35.5 14.5t-14.5 34.5t14.5 35t35.5 15q20 0 34.5 -15t14.5 -35zM187 420l-99 -512q-26 -132 -144 -132q-30 0 -68 9l22 65q20 -3 34 -3q65 0 76 55l100 518h79z" />
<glyph unicode="k" horiz-adv-x="408" d="M441 420l-228 -203l157 -217h-87l-148 208l-40 -208h-79l142 733h79l-97 -499l200 186h101z" />
<glyph unicode="l" horiz-adv-x="203" d="M242 733l-142 -733h-79l142 733h79z" />
<glyph unicode="m" horiz-adv-x="733" d="M698 318q0 -22 -4 -42l-53 -276h-79l51 264q4 26 4 35q0 63 -65 63q-56 0 -128 -70l-57 -292h-79l53 264q4 17 4 35q0 63 -64 63q-59 0 -130 -71l-56 -291h-79l82 420h75l-14 -70q86 78 162 78q41 0 67.5 -21.5t32.5 -57.5q39 36 87 57.5t88 21.5q51 0 76.5 -30t25.5 -80 z" />
<glyph unicode="n" d="M427 318q0 -22 -4 -42l-54 -276h-79l52 264q4 17 4 35q0 63 -64 63q-60 0 -131 -71l-56 -291h-79l82 420h75l-14 -70q86 78 166 78q51 0 76.5 -30t25.5 -80z" />
<glyph unicode="o" horiz-adv-x="468" d="M359 252q0 50 -25.5 79.5t-71.5 29.5q-51 0 -95 -44q-58 -58 -58 -149q0 -50 25.5 -79.5t71.5 -29.5q51 0 95 44q58 58 58 149zM434 256q0 -52 -22 -105t-60 -92q-67 -67 -154 -67q-73 0 -118.5 47t-45.5 125q0 52 22 105t60 92q67 67 154 67q73 0 118.5 -47t45.5 -125z " />
<glyph unicode="p" horiz-adv-x="476" d="M441 256q0 -108 -67.5 -186t-170.5 -78q-53 0 -104 28l-46 -236h-79l124 636h75l-9 -45q56 53 127 53q60 0 105 -49t45 -123zM364 244q0 53 -28.5 84.5t-77.5 31.5q-51 0 -102 -44l-44 -226q38 -30 95 -30q66 0 111.5 52.5t45.5 131.5z" />
<glyph unicode="q" horiz-adv-x="473" d="M457 420l-123 -636h-79l46 235q-43 -27 -95 -27q-71 0 -122 52t-51 125q0 106 67.5 182.5t169.5 76.5q54 0 108 -33l5 25h74zM361 330q-40 32 -94 32q-66 0 -111.5 -51t-45.5 -128q0 -58 31 -90.5t83 -32.5q50 0 91 35z" />
<glyph unicode="r" horiz-adv-x="282" d="M296 428l-14 -77h-2q-44 0 -72.5 -14.5t-57.5 -49.5l-55 -287h-79l82 420h75l-14 -70q54 78 137 78z" />
<glyph unicode="s" horiz-adv-x="349" d="M336 386l-42 -56q-42 33 -84 33q-37 0 -57.5 -16.5t-20.5 -42.5q0 -19 17.5 -32t53.5 -30q50 -24 71.5 -47.5t21.5 -64.5q0 -63 -46 -100.5t-109 -37.5q-81 0 -143 55l46 54q51 -44 104 -44q37 0 57 17t20 47q0 16 -12 29t-23 19.5t-40 20.5q-30 15 -45.5 25.5t-28.5 31 t-13 48.5q0 58 47 95.5t111 37.5q66 0 115 -42z" />
<glyph unicode="t" horiz-adv-x="295" d="M310 420l-13 -68h-117l-46 -236q-2 -14 -2 -19q0 -36 59 -36q15 0 45 4l-13 -65q-37 -8 -65 -8q-102 0 -102 92q0 16 3 34l46 234h-76v7l90 69l17 85l82 31l-25 -124h117z" />
<glyph unicode="u" d="M445 420l-82 -420h-75l14 70q-86 -78 -166 -78q-51 0 -76.5 30t-25.5 80q0 22 4 42l54 276h79l-52 -264q-4 -17 -4 -35q0 -63 64 -63q60 0 131 71l56 291h79z" />
<glyph unicode="v" horiz-adv-x="420" d="M455 420l-283 -431h-13l-112 431h79l68 -290l176 290h85z" />
<glyph unicode="w" horiz-adv-x="594" d="M625 420l-229 -431h-13l-71 283l-182 -283h-13l-66 431h78l33 -274l170 276h13l65 -276l132 274h83z" />
<glyph unicode="x" horiz-adv-x="417" d="M444 420l-189 -214l108 -206h-80l-81 160l-135 -160h-89l190 214l-108 206h79l82 -163l135 163h88z" />
<glyph unicode="y" horiz-adv-x="420" d="M454 420l-412 -636h-78l172 267l-89 369h78l63 -298l181 298h85z" />
<glyph unicode="z" horiz-adv-x="405" d="M423 408l-313 -342h242l-13 -66h-357l-3 11l313 343h-227l12 66h344z" />
<glyph unicode="{" horiz-adv-x="295" d="M378 739l-13 -69h-18q-78 0 -95 -90l-40 -209q-9 -48 -27 -71t-63 -42q52 -22 52 -70q0 -14 -6 -43l-38 -192q-4 -17 -4 -36q0 -72 82 -72l-13 -68q-139 0 -139 132q0 25 6 54l39 203q3 15 3 25q0 40 -52 40h-24l13 63h23q35 0 52 15.5t23 49.5l44 224q30 156 168 156h27 z" />
<glyph unicode="|" horiz-adv-x="252" d="M77 -216h-68l185 949h68z" />
<glyph unicode="}" horiz-adv-x="293" d="M-64 -223l13 69h18q78 0 95 90l40 209q9 48 27 71t63 42q-52 22 -52 70q0 14 6 43l38 192q4 17 4 36q0 72 -82 72l13 68q139 0 139 -132q0 -25 -6 -54l-39 -203q-3 -15 -3 -25q0 -40 52 -40h24l-13 -63h-23q-35 0 -52 -15.5t-23 -49.5l-44 -224q-30 -156 -168 -156h-27z " />
<glyph unicode="~" horiz-adv-x="440" d="M403 378q-55 -61 -107 -61q-23 0 -60 22q-25 17 -45 17q-24 0 -58 -34l-32 41q48 54 100 54q23 0 55 -20t50 -20q16 0 28 8.5t36 32.5z" />
<glyph unicode="&#xa1;" horiz-adv-x="220" d="M251 692q0 -20 -14.5 -34.5t-34.5 -14.5t-34.5 14.5t-14.5 34.5t14.5 34.5t34.5 14.5t34.5 -14.5t14.5 -34.5zM203 552l-93 -552h-90l128 558z" />
<glyph unicode="&#xa2;" horiz-adv-x="428" d="M339 492l-17 -68q49 -9 96 -40l-37 -57q-37 23 -75 30l-73 -298h10q53 0 97 22l13 -62q-68 -27 -127 -27h-9l-17 -69l-68 5l19 78q-50 19 -81.5 63t-31.5 109q0 92 60 163.5t155 83.5l18 72zM112 181q0 -73 56 -104l68 278q-57 -14 -90.5 -63.5t-33.5 -110.5z" />
<glyph unicode="&#xa3;" horiz-adv-x="439" d="M477 529l-44 -56q-49 43 -102 43q-89 0 -112 -120l-14 -73h123l-13 -68h-124l-36 -184h245l-14 -71h-390l14 71h64l36 184h-63v7l78 66l17 85q16 80 68.5 126.5t129.5 46.5q74 0 137 -57z" />
<glyph unicode="&#xa5;" horiz-adv-x="503" d="M554 576l-197 -240h117l-13 -68h-156l-13 -67h156l-13 -65h-156l-26 -136h-80l27 136h-160l12 65h161l13 67h-161l14 68h130l-108 240h85l97 -230l180 230h91z" />
<glyph unicode="&#xa7;" horiz-adv-x="427" d="M421 544l-41 -57q-42 35 -93 35q-37 0 -61.5 -17.5t-24.5 -43.5q0 -15 12.5 -27.5t25.5 -18l40 -16.5q32 -13 49.5 -22.5t34.5 -32.5t17 -53q0 -67 -67 -105q20 -23 20 -58q0 -61 -45.5 -99.5t-118.5 -38.5q-90 0 -152 54l45 56q20 -20 52 -33t59 -13q43 0 65 17.5 t22 47.5q0 12 -5 20.5t-20.5 17.5t-21.5 12t-31 13q-22 9 -36 16t-31 20t-25 31t-8 41q0 61 71 100q-24 26 -24 63q0 56 48 94.5t120 38.5q33 0 68 -12t56 -30zM228 238q5 -2 18.5 -8t19.5 -9q41 17 41 60q0 15 -12 27t-24 18t-38 17q-19 6 -31 13q-49 -18 -49 -57 q0 -11 5 -20t19 -17t21.5 -11.5t29.5 -12.5z" />
<glyph unicode="&#xa8;" horiz-adv-x="440" d="M241 541q0 -19 -13.5 -33t-33.5 -14q-19 0 -32.5 14t-13.5 33t13.5 33t32.5 14q20 0 33.5 -14t13.5 -33zM414 541q0 -19 -13.5 -33t-32.5 -14q-20 0 -33.5 14t-13.5 33t13.5 33t33.5 14q19 0 32.5 -14t13.5 -33z" />
<glyph unicode="&#xa9;" horiz-adv-x="842" d="M567 210q-60 -34 -129 -34q-76 0 -123.5 44t-46.5 122q0 88 66 152.5t160 64.5q75 0 131 -41l-32 -52q-45 33 -100 33q-66 0 -110.5 -43.5t-44.5 -108.5q0 -53 30.5 -82t83.5 -29q51 0 101 29zM771 415q0 128 -76 204.5t-199 76.5q-155 0 -257.5 -110.5t-102.5 -267.5 q0 -128 77 -205t198 -77q154 0 257 111.5t103 267.5zM829 415q0 -112 -52.5 -209.5t-150 -158t-217.5 -60.5q-148 0 -239.5 91.5t-91.5 238.5q0 113 52.5 210.5t150.5 158t218 60.5q147 0 238.5 -92t91.5 -239z" />
<glyph unicode="&#xaa;" horiz-adv-x="342" d="M381 604l-34 -175h-72l6 31q-39 -36 -91 -36q-38 0 -66 24.5t-28 65.5q0 45 34.5 75t90.5 30q49 0 84 -23l4 23l2 17q0 48 -61 48q-36 0 -77 -16l-6 61q48 16 94 16q58 0 91 -28t33 -77q0 -19 -4 -36zM296 550q-26 20 -64 20q-28 0 -46 -13.5t-18 -38.5q0 -18 12.5 -29.5 t35.5 -11.5q39 0 72 31z" />
<glyph unicode="&#xab;" horiz-adv-x="423" d="M402 336l-141 -168l78 -159h-79l-73 164l137 163h78zM257 336l-141 -168l78 -159h-79l-73 164l137 163h78z" />
<glyph unicode="&#xae;" horiz-adv-x="382" d="M433 595q0 -80 -58.5 -138.5t-136.5 -58.5q-64 0 -107 41.5t-43 107.5q0 79 58 138t138 59q65 0 107 -41.5t42 -107.5zM403 594q0 55 -33.5 89t-88.5 34q-66 0 -114.5 -50t-48.5 -119q0 -55 33.5 -89t88.5 -34q66 0 114.5 50t48.5 119zM187 488l32 168q24 3 49 3 q64 0 64 -47q0 -20 -12 -36t-28 -22l29 -66h-41l-22 57h-24l-11 -57h-36zM249 627l-9 -52q5 -1 14 -1q18 0 29.5 8.5t11.5 23.5q0 22 -29 22q-11 0 -17 -1z" />
<glyph unicode="&#xaf;" horiz-adv-x="440" d="M425 570l-13 -68h-278l13 68h278z" />
<glyph unicode="&#xb0;" horiz-adv-x="360" d="M329 602q0 -46 -33 -83t-84 -37q-37 0 -61.5 24t-24.5 60q0 46 33 82.5t84 36.5q37 0 61.5 -24t24.5 -59zM275 596q0 22 -10.5 34t-27.5 12q-22 0 -39.5 -20.5t-17.5 -49.5q0 -22 10.5 -34t27.5 -12q23 0 40 20t17 50z" />
<glyph unicode="&#xb4;" horiz-adv-x="440" d="M379 570l-190 -96l-19 44l171 127z" />
<glyph unicode="&#xb6;" horiz-adv-x="592" d="M580 556l-108 -556h-72l98 504q-18 4 -63 10l-100 -514h-72l33 169q-90 9 -147.5 57.5t-57.5 126.5q0 108 85.5 170.5t209.5 62.5q84 0 194 -30zM363 516q-90 0 -140.5 -43.5t-50.5 -114.5q0 -52 36.5 -83.5t101.5 -33.5z" />
<glyph unicode="&#xb7;" horiz-adv-x="300" d="M229 365q0 -20 -14.5 -34.5t-35.5 -14.5q-20 0 -34.5 14.5t-14.5 34.5t14.5 34.5t34.5 14.5q21 0 35.5 -14.5t14.5 -34.5z" />
<glyph unicode="&#xb8;" horiz-adv-x="440" d="M271 -138q0 -42 -31.5 -70.5t-81.5 -28.5q-55 0 -106 34l31 46q40 -27 80 -27q19 0 32.5 11.5t13.5 30.5q0 16 -20.5 29.5t-62.5 16.5l-3 8l48 102l43 -12l-24 -58q81 -23 81 -82z" />
<glyph unicode="&#xba;" horiz-adv-x="361" d="M402 613q0 -74 -50 -132t-128 -58q-58 0 -93.5 37.5t-35.5 94.5q0 74 50.5 132t128.5 58q57 0 92.5 -37.5t35.5 -94.5zM331 610q0 35 -17.5 55t-48.5 20q-40 0 -69.5 -39t-29.5 -88q0 -35 18 -55t49 -20q40 0 69 39t29 88z" />
<glyph unicode="&#xbb;" horiz-adv-x="423" d="M367 172l-137 -163h-78l141 168l-78 159h79zM222 172l-137 -163h-78l141 168l-78 159h79z" />
<glyph unicode="&#xbf;" horiz-adv-x="374" d="M6 143q0 42 20 77.5t42 54.5t60 45q71 49 91 72q24 28 30 59l13 73l74 -7l-19 -96q-4 -22 -15 -41t-33 -38t-34 -28t-42 -29q-35 -24 -54 -39t-35.5 -40.5t-16.5 -53.5q0 -36 29 -60t94 -24q39 0 90 12l8 -72q-63 -14 -115 -14q-86 0 -136.5 41.5t-50.5 107.5zM282 692 q0 20 14.5 34.5t34.5 14.5t34.5 -14.5t14.5 -34.5t-14.5 -34.5t-34.5 -14.5t-34.5 14.5t-14.5 34.5z" />
<glyph unicode="&#xc0;" horiz-adv-x="662" d="M614 0h-85l-43 203h-316l-124 -203h-85l465 746h12zM471 270l-67 315l-193 -315h260zM498 836l-34 -42l-162 106l52 65z" />
<glyph unicode="&#xc1;" horiz-adv-x="662" d="M614 0h-85l-43 203h-316l-124 -203h-85l465 746h12zM471 270l-67 315l-193 -315h260zM603 890l-190 -96l-19 44l171 127z" />
<glyph unicode="&#xc2;" horiz-adv-x="662" d="M614 0h-85l-43 203h-316l-124 -203h-85l465 746h12zM471 270l-67 315l-193 -315h260zM588 805h-76l-50 83l-84 -83h-84l165 160h31z" />
<glyph unicode="&#xc3;" horiz-adv-x="662" d="M614 0h-85l-43 203h-316l-124 -203h-85l465 746h12zM471 270l-67 315l-193 -315h260zM609 880q-55 -61 -107 -61q-26 0 -56 20q-32 19 -49 19q-24 0 -58 -34l-32 41q48 54 100 54q24 0 56 -21q30 -19 49 -19q16 0 28 8.5t36 32.5z" />
<glyph unicode="&#xc4;" horiz-adv-x="662" d="M614 0h-85l-43 203h-316l-124 -203h-85l465 746h12zM471 270l-67 315l-193 -315h260zM417 861q0 -19 -13.5 -33t-33.5 -14q-19 0 -32.5 14t-13.5 33t13.5 33t32.5 14q20 0 33.5 -14t13.5 -33zM590 861q0 -19 -13.5 -33t-32.5 -14q-20 0 -33.5 14t-13.5 33t13.5 33 t33.5 14q19 0 32.5 -14t13.5 -33z" />
<glyph unicode="&#xc5;" horiz-adv-x="662" d="M548 829q0 -42 -28.5 -77.5t-73.5 -41.5l168 -710h-85l-43 203h-316l-124 -203h-85l444 712q-27 8 -43.5 30t-16.5 51q0 46 33 82.5t84 36.5q37 0 61.5 -24t24.5 -59zM471 270l-67 315l-193 -315h260zM494 823q0 22 -10.5 34t-27.5 12q-22 0 -39.5 -20.5t-17.5 -49.5 q0 -22 10.5 -34t27.5 -12q23 0 40 20t17 50z" />
<glyph unicode="&#xc6;" horiz-adv-x="984" d="M1022 733l-14 -72h-331l-49 -253h296l-14 -72h-296l-52 -264h332l-14 -72h-411l46 236h-253l-209 -236h-92l651 733h410zM528 303l59 301l-266 -301h207z" />
<glyph unicode="&#xc7;" horiz-adv-x="696" d="M436 -138q0 -42 -31.5 -70.5t-81.5 -28.5q-55 0 -106 34l31 46q40 -27 80 -27q19 0 32.5 11.5t13.5 30.5q0 16 -20.5 29.5t-62.5 16.5l-3 8l39 83q-109 22 -182.5 108t-73.5 211q0 121 61 221.5t157 155t202 54.5q65 0 127 -22t102 -53l-40 -63q-82 66 -201 66 q-138 0 -232 -104t-94 -247q0 -119 72 -191t178 -72q95 0 200 62l31 -64q-111 -69 -241 -69q-13 0 -20 1l-18 -45q81 -23 81 -82z" />
<glyph unicode="&#xc8;" horiz-adv-x="551" d="M589 733l-14 -72h-331l-49 -253h296l-14 -72h-296l-52 -264h332l-14 -72h-411l143 733h410zM450 836l-34 -42l-162 106l52 65z" />
<glyph unicode="&#xc9;" horiz-adv-x="551" d="M589 733l-14 -72h-331l-49 -253h296l-14 -72h-296l-52 -264h332l-14 -72h-411l143 733h410zM555 890l-190 -96l-19 44l171 127z" />
<glyph unicode="&#xca;" horiz-adv-x="551" d="M589 733l-14 -72h-331l-49 -253h296l-14 -72h-296l-52 -264h332l-14 -72h-411l143 733h410zM539 805h-76l-50 83l-84 -83h-84l165 160h31z" />
<glyph unicode="&#xcb;" horiz-adv-x="551" d="M589 733l-14 -72h-331l-49 -253h296l-14 -72h-296l-52 -264h332l-14 -72h-411l143 733h410zM368 861q0 -19 -14 -33t-33 -14t-32.5 14t-13.5 33t13.5 33t32.5 14t33 -14t14 -33zM541 861q0 -19 -13.5 -33t-32.5 -14t-33 14t-14 33t14 33t33 14t32.5 -14t13.5 -33z" />
<glyph unicode="&#xcc;" horiz-adv-x="246" d="M264 733l-143 -733h-79l143 733h79zM291 836l-34 -42l-162 106l52 65z" />
<glyph unicode="&#xcd;" horiz-adv-x="246" d="M264 733l-143 -733h-79l143 733h79zM396 890l-190 -96l-19 44l171 127z" />
<glyph unicode="&#xce;" horiz-adv-x="246" d="M264 733l-143 -733h-79l143 733h79zM380 805h-76l-50 83l-84 -83h-84l165 160h31z" />
<glyph unicode="&#xcf;" horiz-adv-x="246" d="M264 733l-143 -733h-79l143 733h79zM209 861q0 -19 -13.5 -33t-33.5 -14q-19 0 -32.5 14t-13.5 33t13.5 33t32.5 14q20 0 33.5 -14t13.5 -33zM382 861q0 -19 -13.5 -33t-32.5 -14q-20 0 -33.5 14t-13.5 33t13.5 33t33.5 14q19 0 32.5 -14t13.5 -33z" />
<glyph unicode="&#xd0;" horiz-adv-x="731" d="M711 409q0 -180 -127 -297.5t-341 -117.5q-82 0 -185 15l63 327h-90l14 72h90l62 318q72 12 157 12q166 0 267 -101q90 -90 90 -228zM629 399q0 125 -73 198t-199 73q-51 0 -93 -7l-50 -255h110l-14 -72h-110l-51 -266q49 -7 119 -7q156 0 258.5 96t102.5 240z" />
<glyph unicode="&#xd1;" horiz-adv-x="707" d="M726 733l-145 -744l-11 -3l-345 575l-110 -561h-79l145 743l16 4l342 -566l108 552h79zM627 865q-55 -61 -107 -61q-26 0 -56 20q-32 19 -49 19q-24 0 -58 -34l-32 41q48 54 100 54q24 0 56 -21q30 -19 49 -19q16 0 28 8.5t36 32.5z" />
<glyph unicode="&#xd2;" horiz-adv-x="815" d="M797 414q0 -73 -28 -147.5t-77.5 -137t-127 -102t-167.5 -39.5q-143 0 -234 90.5t-91 240.5q0 73 28 147.5t77.5 137t127 102t167.5 39.5q143 0 234 -91t91 -240zM717 414q0 116 -66.5 187.5t-177.5 71.5q-137 0 -228.5 -104t-91.5 -251q0 -115 66 -187t177 -72 q137 0 229 104t92 251zM572 836l-34 -42l-162 106l52 65z" />
<glyph unicode="&#xd3;" horiz-adv-x="815" d="M797 414q0 -73 -28 -147.5t-77.5 -137t-127 -102t-167.5 -39.5q-143 0 -234 90.5t-91 240.5q0 73 28 147.5t77.5 137t127 102t167.5 39.5q143 0 234 -91t91 -240zM717 414q0 116 -66.5 187.5t-177.5 71.5q-137 0 -228.5 -104t-91.5 -251q0 -115 66 -187t177 -72 q137 0 229 104t92 251zM677 890l-190 -96l-19 44l171 127z" />
<glyph unicode="&#xd4;" horiz-adv-x="815" d="M797 414q0 -73 -28 -147.5t-77.5 -137t-127 -102t-167.5 -39.5q-143 0 -234 90.5t-91 240.5q0 73 28 147.5t77.5 137t127 102t167.5 39.5q143 0 234 -91t91 -240zM717 414q0 116 -66.5 187.5t-177.5 71.5q-137 0 -228.5 -104t-91.5 -251q0 -115 66 -187t177 -72 q137 0 229 104t92 251zM661 805h-76l-50 83l-84 -83h-84l165 160h31z" />
<glyph unicode="&#xd5;" horiz-adv-x="815" d="M797 414q0 -73 -28 -147.5t-77.5 -137t-127 -102t-167.5 -39.5q-143 0 -234 90.5t-91 240.5q0 73 28 147.5t77.5 137t127 102t167.5 39.5q143 0 234 -91t91 -240zM717 414q0 116 -66.5 187.5t-177.5 71.5q-137 0 -228.5 -104t-91.5 -251q0 -115 66 -187t177 -72 q137 0 229 104t92 251zM683 880q-55 -61 -107 -61q-26 0 -56 20q-32 19 -49 19q-24 0 -58 -34l-32 41q48 54 100 54q24 0 56 -21q30 -19 49 -19q16 0 28 8.5t36 32.5z" />
<glyph unicode="&#xd6;" horiz-adv-x="815" d="M797 414q0 -73 -28 -147.5t-77.5 -137t-127 -102t-167.5 -39.5q-143 0 -234 90.5t-91 240.5q0 73 28 147.5t77.5 137t127 102t167.5 39.5q143 0 234 -91t91 -240zM717 414q0 116 -66.5 187.5t-177.5 71.5q-137 0 -228.5 -104t-91.5 -251q0 -115 66 -187t177 -72 q137 0 229 104t92 251zM490 861q0 -19 -14 -33t-33 -14t-32.5 14t-13.5 33t13.5 33t32.5 14t33 -14t14 -33zM663 861q0 -19 -13.5 -33t-32.5 -14t-33 14t-14 33t14 33t33 14t32.5 -14t13.5 -33z" />
<glyph unicode="&#xd7;" horiz-adv-x="429" d="M370 448l40 -54l-132 -110l92 -114l-54 -46l-93 114l-134 -112l-40 54l132 111l-92 115l54 46l93 -116z" />
<glyph unicode="&#xd8;" horiz-adv-x="815" d="M797 414q0 -73 -28 -147.5t-77.5 -137t-127 -102t-167.5 -39.5q-135 0 -224 81l-80 -75l-44 52l79 75q-56 85 -56 198q0 73 28 147.5t77.5 137t127 102t167.5 39.5q136 0 225 -83l79 76l44 -52l-80 -75q57 -84 57 -197zM717 414q0 80 -34 142l-455 -434q65 -63 168 -63 q137 0 229 104t92 251zM153 318q0 -79 33 -142l456 434q-66 63 -169 63q-137 0 -228.5 -104t-91.5 -251z" />
<glyph unicode="&#xd9;" horiz-adv-x="678" d="M705 733l-94 -483q-25 -128 -101 -195t-199 -67q-107 0 -170 62t-63 169q0 33 8 75l85 439h79l-87 -450q-6 -33 -6 -62q0 -76 43 -119t125 -43q87 0 137.5 49t71.5 157l92 468h79zM499 821l-34 -42l-162 106l52 65z" />
<glyph unicode="&#xda;" horiz-adv-x="678" d="M705 733l-94 -483q-25 -128 -101 -195t-199 -67q-107 0 -170 62t-63 169q0 33 8 75l85 439h79l-87 -450q-6 -33 -6 -62q0 -76 43 -119t125 -43q87 0 137.5 49t71.5 157l92 468h79zM604 875l-190 -96l-19 44l171 127z" />
<glyph unicode="&#xdb;" horiz-adv-x="678" d="M705 733l-94 -483q-25 -128 -101 -195t-199 -67q-107 0 -170 62t-63 169q0 33 8 75l85 439h79l-87 -450q-6 -33 -6 -62q0 -76 43 -119t125 -43q87 0 137.5 49t71.5 157l92 468h79zM589 790h-76l-50 83l-84 -83h-84l165 160h31z" />
<glyph unicode="&#xdc;" horiz-adv-x="678" d="M705 733l-94 -483q-25 -128 -101 -195t-199 -67q-107 0 -170 62t-63 169q0 33 8 75l85 439h79l-87 -450q-6 -33 -6 -62q0 -76 43 -119t125 -43q87 0 137.5 49t71.5 157l92 468h79zM417 846q0 -20 -13.5 -33.5t-33.5 -13.5q-19 0 -32.5 14t-13.5 33t13.5 33t32.5 14 q20 0 33.5 -13.5t13.5 -33.5zM590 846q0 -19 -13.5 -33t-32.5 -14q-20 0 -33.5 13.5t-13.5 33.5t13.5 33.5t33.5 13.5q19 0 32.5 -14t13.5 -33z" />
<glyph unicode="&#xdd;" horiz-adv-x="584" d="M681 733l-326 -412l-63 -321h-79l63 324l-171 409h80l144 -343l261 343h91zM564 875l-190 -96l-19 44l171 127z" />
<glyph unicode="&#xde;" horiz-adv-x="539" d="M36 0l143 733h79l-24 -125q10 1 35 1q128 0 197.5 -63t69.5 -159q0 -117 -82 -190.5t-231 -73.5q-37 0 -82 7l-26 -130h-79zM454 381q0 67 -44 111.5t-128 44.5q-38 0 -63 -3l-64 -333q47 -5 80 -5q106 0 162.5 52t56.5 133z" />
<glyph unicode="&#xdf;" horiz-adv-x="484" d="M500 408l-200 -201q108 -39 106 -136q-1 -68 -46.5 -116.5t-130.5 -48.5q-45 0 -96 15l16 66q49 -13 84 -13q44 0 69 26t25 67q0 44 -36.5 68.5t-103.5 26.5l-4 14l172 178h-193l-110 -570h-78l150 770q20 102 64 144t113 42q35 0 73 -14l-28 -70q-23 10 -49 10 q-39 0 -62 -26t-35 -91l-25 -129h323z" />
<glyph unicode="&#xe0;" horiz-adv-x="425" d="M386 293q0 -25 -6 -57l-47 -236h-73l8 42q-55 -50 -124 -50q-52 0 -89.5 33t-37.5 90q0 61 47 102t123 41q68 0 113 -32l5 26q4 24 4 33q0 32 -21 52.5t-59 20.5q-48 0 -108 -23l-7 70q71 23 126 23q146 0 146 -135zM288 163q-39 34 -103 34q-40 0 -67 -21.5t-27 -55.5 q0 -30 19.5 -47.5t56.5 -17.5q55 0 110 52zM318 516l-34 -42l-162 106l52 65z" />
<glyph unicode="&#xe1;" horiz-adv-x="425" d="M386 293q0 -25 -6 -57l-47 -236h-73l8 42q-55 -50 -124 -50q-52 0 -89.5 33t-37.5 90q0 61 47 102t123 41q68 0 113 -32l5 26q4 24 4 33q0 32 -21 52.5t-59 20.5q-48 0 -108 -23l-7 70q71 23 126 23q146 0 146 -135zM288 163q-39 34 -103 34q-40 0 -67 -21.5t-27 -55.5 q0 -30 19.5 -47.5t56.5 -17.5q55 0 110 52zM423 570l-190 -96l-19 44l171 127z" />
<glyph unicode="&#xe2;" horiz-adv-x="425" d="M386 293q0 -25 -6 -57l-47 -236h-73l8 42q-55 -50 -124 -50q-52 0 -89.5 33t-37.5 90q0 61 47 102t123 41q68 0 113 -32l5 26q4 24 4 33q0 32 -21 52.5t-59 20.5q-48 0 -108 -23l-7 70q71 23 126 23q146 0 146 -135zM288 163q-39 34 -103 34q-40 0 -67 -21.5t-27 -55.5 q0 -30 19.5 -47.5t56.5 -17.5q55 0 110 52zM407 485h-76l-50 83l-84 -83h-84l165 160h31z" />
<glyph unicode="&#xe3;" horiz-adv-x="425" d="M386 293q0 -25 -6 -57l-47 -236h-73l8 42q-55 -50 -124 -50q-52 0 -89.5 33t-37.5 90q0 61 47 102t123 41q68 0 113 -32l5 26q4 24 4 33q0 32 -21 52.5t-59 20.5q-48 0 -108 -23l-7 70q71 23 126 23q146 0 146 -135zM288 163q-39 34 -103 34q-40 0 -67 -21.5t-27 -55.5 q0 -30 19.5 -47.5t56.5 -17.5q55 0 110 52zM429 560q-55 -61 -107 -61q-26 0 -56 20q-32 19 -49 19q-24 0 -58 -34l-32 41q48 54 100 54q24 0 56 -21q30 -19 49 -19q16 0 28 8.5t36 32.5z" />
<glyph unicode="&#xe4;" horiz-adv-x="425" d="M386 293q0 -25 -6 -57l-47 -236h-73l8 42q-55 -50 -124 -50q-52 0 -89.5 33t-37.5 90q0 61 47 102t123 41q68 0 113 -32l5 26q4 24 4 33q0 32 -21 52.5t-59 20.5q-48 0 -108 -23l-7 70q71 23 126 23q146 0 146 -135zM288 163q-39 34 -103 34q-40 0 -67 -21.5t-27 -55.5 q0 -30 19.5 -47.5t56.5 -17.5q55 0 110 52zM236 541q0 -19 -14 -33t-33 -14t-32.5 14t-13.5 33t13.5 33t32.5 14t33 -14t14 -33zM409 541q0 -19 -13.5 -33t-32.5 -14t-33 14t-14 33t14 33t33 14t32.5 -14t13.5 -33z" />
<glyph unicode="&#xe5;" horiz-adv-x="425" d="M386 293q0 -25 -6 -57l-47 -236h-73l8 42q-55 -50 -124 -50q-52 0 -89.5 33t-37.5 90q0 61 47 102t123 41q68 0 113 -32l5 26q4 24 4 33q0 32 -21 52.5t-59 20.5q-48 0 -108 -23l-7 70q71 23 126 23q146 0 146 -135zM288 163q-39 34 -103 34q-40 0 -67 -21.5t-27 -55.5 q0 -30 19.5 -47.5t56.5 -17.5q55 0 110 52zM387 602q0 -46 -33 -83t-84 -37q-37 0 -61.5 24t-24.5 60q0 46 33 82.5t84 36.5q37 0 61.5 -24t24.5 -59zM333 596q0 22 -10.5 34t-27.5 12q-22 0 -39.5 -20.5t-17.5 -49.5q0 -22 10.5 -34t27.5 -12q23 0 40 20t17 50z" />
<glyph unicode="&#xe6;" horiz-adv-x="709" d="M156 -8q-61 0 -100 32.5t-39 90.5q0 61 47 102t123 41q68 0 113 -32l6 31q3 15 3 27q0 75 -80 75q-50 0 -108 -23l-8 66q69 27 127 27q102 0 125 -80q69 79 164 79q73 0 113.5 -48t40.5 -118q0 -29 -10 -66h-304q-1 -7 -1 -25q0 -56 32.5 -84t87.5 -28q47 0 108 22 l13 -64q-64 -25 -130 -25q-122 0 -164 84q-26 -39 -68.5 -61.5t-90.5 -22.5zM167 55q42 0 76 29.5t45 78.5q-39 34 -103 34q-40 0 -67 -21.5t-27 -55.5q0 -30 19.5 -47.5t56.5 -17.5zM385 255h222q1 7 1 16q0 40 -23.5 65t-62.5 25q-43 0 -80 -29.5t-57 -76.5z" />
<glyph unicode="&#xe7;" horiz-adv-x="412" d="M274 -138q0 -42 -31.5 -70.5t-81.5 -28.5q-55 0 -106 34l31 46q40 -27 80 -27q19 0 32.5 11.5t13.5 30.5q0 16 -20.5 29.5t-62.5 16.5l-3 8l41 88q-57 17 -93 62.5t-36 115.5q0 98 71 174t176 76q71 0 133 -44l-37 -57q-53 34 -109 34q-67 0 -113 -53.5t-46 -126.5 q0 -58 37 -90t93 -32q53 0 97 22l13 -62q-68 -27 -127 -27q-9 0 -13 1l-20 -49q81 -23 81 -82z" />
<glyph unicode="&#xe8;" horiz-adv-x="451" d="M221 -8q-81 0 -133 42t-52 130q0 100 68 182t167 82q73 0 113.5 -48t40.5 -118q0 -29 -10 -66h-303q-1 -7 -1 -25q0 -56 32 -84t87 -28q47 0 108 22l13 -64q-63 -25 -130 -25zM128 255h221q1 7 1 20q-1 38 -24 62t-62 24q-43 0 -79.5 -29.5t-56.5 -76.5zM346 516l-34 -42 l-162 106l52 65z" />
<glyph unicode="&#xe9;" horiz-adv-x="451" d="M221 -8q-81 0 -133 42t-52 130q0 100 68 182t167 82q73 0 113.5 -48t40.5 -118q0 -29 -10 -66h-303q-1 -7 -1 -25q0 -56 32 -84t87 -28q47 0 108 22l13 -64q-63 -25 -130 -25zM128 255h221q1 7 1 20q-1 38 -24 62t-62 24q-43 0 -79.5 -29.5t-56.5 -76.5zM451 570 l-190 -96l-19 44l171 127z" />
<glyph unicode="&#xea;" horiz-adv-x="451" d="M221 -8q-81 0 -133 42t-52 130q0 100 68 182t167 82q73 0 113.5 -48t40.5 -118q0 -29 -10 -66h-303q-1 -7 -1 -25q0 -56 32 -84t87 -28q47 0 108 22l13 -64q-63 -25 -130 -25zM435 485h-76l-50 83l-84 -83h-84l165 160h31zM128 255h221q1 7 1 20q-1 38 -24 62t-62 24 q-43 0 -79.5 -29.5t-56.5 -76.5z" />
<glyph unicode="&#xeb;" horiz-adv-x="451" d="M221 -8q-81 0 -133 42t-52 130q0 100 68 182t167 82q73 0 113.5 -48t40.5 -118q0 -29 -10 -66h-303q-1 -7 -1 -25q0 -56 32 -84t87 -28q47 0 108 22l13 -64q-63 -25 -130 -25zM128 255h221q1 7 1 20q-1 38 -24 62t-62 24q-43 0 -79.5 -29.5t-56.5 -76.5zM264 541 q0 -19 -14 -33t-33 -14t-32.5 14t-13.5 33t13.5 33t32.5 14t33 -14t14 -33zM437 541q0 -19 -13.5 -33t-32.5 -14t-33 14t-14 33t14 33t33 14t32.5 -14t13.5 -33z" />
<glyph unicode="&#xec;" horiz-adv-x="203" d="M182 420l-82 -420h-79l82 420h79zM207 516l-34 -42l-162 106l52 65z" />
<glyph unicode="&#xed;" horiz-adv-x="203" d="M182 420l-82 -420h-79l82 420h79zM312 570l-190 -96l-19 44l171 127z" />
<glyph unicode="&#xee;" horiz-adv-x="203" d="M182 420l-82 -420h-79l82 420h79zM296 485h-76l-50 83l-84 -83h-84l165 160h31z" />
<glyph unicode="&#xef;" horiz-adv-x="203" d="M182 420l-82 -420h-79l82 420h79zM125 541q0 -19 -13.5 -33t-33.5 -14q-19 0 -32.5 14t-13.5 33t13.5 33t32.5 14q20 0 33.5 -14t13.5 -33zM298 541q0 -19 -13.5 -33t-32.5 -14q-20 0 -33.5 14t-13.5 33t13.5 33t33.5 14q19 0 32.5 -14t13.5 -33z" />
<glyph unicode="&#xf0;" horiz-adv-x="476" d="M398 656l-73 -48q115 -136 115 -327q0 -122 -66 -205.5t-172 -83.5q-73 0 -120 48.5t-47 126.5q0 99 68.5 179.5t167.5 80.5q57 0 83 -32q-15 91 -90 174l-98 -64l-35 55l84 55q-40 34 -85 60l39 59q62 -34 109 -77l84 55zM362 249q0 51 -25 81t-73 30q-61 0 -106.5 -57 t-45.5 -131q0 -52 26 -82.5t72 -30.5q61 0 106.5 57.5t45.5 132.5z" />
<glyph unicode="&#xf1;" d="M427 318q0 -22 -4 -42l-54 -276h-79l52 264q4 17 4 35q0 63 -64 63q-60 0 -131 -71l-56 -291h-79l82 420h75l-14 -70q86 78 166 78q51 0 76.5 -30t25.5 -80zM450 560q-55 -61 -107 -61q-26 0 -56 20q-32 19 -49 19q-24 0 -58 -34l-32 41q48 54 100 54q24 0 56 -21 q30 -19 49 -19q16 0 28 8.5t36 32.5z" />
<glyph unicode="&#xf2;" horiz-adv-x="472" d="M359 252q0 50 -25.5 79.5t-71.5 29.5q-51 0 -95 -44q-58 -58 -58 -149q0 -50 25.5 -79.5t71.5 -29.5q51 0 95 44q58 58 58 149zM434 256q0 -52 -22 -105t-60 -92q-67 -67 -154 -67q-73 0 -118.5 47t-45.5 125q0 52 22 105t60 92q67 67 154 67q73 0 118.5 -47t45.5 -125z M342 516l-34 -42l-162 106l52 65z" />
<glyph unicode="&#xf3;" horiz-adv-x="472" d="M359 252q0 50 -25.5 79.5t-71.5 29.5q-51 0 -95 -44q-58 -58 -58 -149q0 -50 25.5 -79.5t71.5 -29.5q51 0 95 44q58 58 58 149zM434 256q0 -52 -22 -105t-60 -92q-67 -67 -154 -67q-73 0 -118.5 47t-45.5 125q0 52 22 105t60 92q67 67 154 67q73 0 118.5 -47t45.5 -125z M447 570l-190 -96l-19 44l171 127z" />
<glyph unicode="&#xf4;" horiz-adv-x="472" d="M359 252q0 50 -25.5 79.5t-71.5 29.5q-51 0 -95 -44q-58 -58 -58 -149q0 -50 25.5 -79.5t71.5 -29.5q51 0 95 44q58 58 58 149zM434 256q0 -52 -22 -105t-60 -92q-67 -67 -154 -67q-73 0 -118.5 47t-45.5 125q0 52 22 105t60 92q67 67 154 67q73 0 118.5 -47t45.5 -125z M431 485h-76l-50 83l-84 -83h-84l165 160h31z" />
<glyph unicode="&#xf5;" horiz-adv-x="472" d="M359 252q0 50 -25.5 79.5t-71.5 29.5q-51 0 -95 -44q-58 -58 -58 -149q0 -50 25.5 -79.5t71.5 -29.5q51 0 95 44q58 58 58 149zM434 256q0 -52 -22 -105t-60 -92q-67 -67 -154 -67q-73 0 -118.5 47t-45.5 125q0 52 22 105t60 92q67 67 154 67q73 0 118.5 -47t45.5 -125z M453 560q-55 -61 -107 -61q-26 0 -56 20q-32 19 -49 19q-24 0 -58 -34l-32 41q48 54 100 54q24 0 56 -21q30 -19 49 -19q16 0 28 8.5t36 32.5z" />
<glyph unicode="&#xf6;" horiz-adv-x="472" d="M359 252q0 50 -25.5 79.5t-71.5 29.5q-51 0 -95 -44q-58 -58 -58 -149q0 -50 25.5 -79.5t71.5 -29.5q51 0 95 44q58 58 58 149zM434 256q0 -52 -22 -105t-60 -92q-67 -67 -154 -67q-73 0 -118.5 47t-45.5 125q0 52 22 105t60 92q67 67 154 67q73 0 118.5 -47t45.5 -125z M260 541q0 -19 -14 -33t-33 -14t-32.5 14t-13.5 33t13.5 33t32.5 14t33 -14t14 -33zM433 541q0 -19 -13.5 -33t-32.5 -14t-33 14t-14 33t14 33t33 14t32.5 -14t13.5 -33z" />
<glyph unicode="&#xf7;" horiz-adv-x="420" d="M247 151q0 -20 -14.5 -34.5t-34.5 -14.5q-21 0 -35.5 14.5t-14.5 34.5t14.5 35t35.5 15q20 0 34.5 -15t14.5 -35zM48 254l13 68h340l-13 -68h-340zM301 424q0 -20 -14.5 -34.5t-34.5 -14.5q-21 0 -35.5 14.5t-14.5 34.5t14.5 35t35.5 15q20 0 34.5 -15t14.5 -35z" />
<glyph unicode="&#xf8;" horiz-adv-x="468" d="M434 256q0 -52 -22 -105t-60 -92q-67 -67 -154 -67q-74 0 -120 49l-58 -49l-38 41l66 56q-14 34 -14 75q0 52 22 105t60 92q67 67 154 67q74 0 120 -49l59 49l37 -41l-66 -56q14 -34 14 -75zM359 252q0 10 -2 26l-223 -189q27 -30 72 -30q51 0 95 44q58 58 58 149z M109 168q0 -9 2 -25l223 188q-27 30 -72 30q-51 0 -95 -44q-58 -58 -58 -149z" />
<glyph unicode="&#xf9;" d="M445 420l-82 -420h-75l14 70q-86 -78 -166 -78q-51 0 -76.5 30t-25.5 80q0 22 4 42l54 276h79l-52 -264q-4 -17 -4 -35q0 -63 64 -63q60 0 131 71l56 291h79zM336 516l-34 -42l-162 106l52 65z" />
<glyph unicode="&#xfa;" d="M445 420l-82 -420h-75l14 70q-86 -78 -166 -78q-51 0 -76.5 30t-25.5 80q0 22 4 42l54 276h79l-52 -264q-4 -17 -4 -35q0 -63 64 -63q60 0 131 71l56 291h79zM441 570l-190 -96l-19 44l171 127z" />
<glyph unicode="&#xfb;" d="M445 420l-82 -420h-75l14 70q-86 -78 -166 -78q-51 0 -76.5 30t-25.5 80q0 22 4 42l54 276h79l-52 -264q-4 -17 -4 -35q0 -63 64 -63q60 0 131 71l56 291h79zM425 485h-76l-50 83l-84 -83h-84l165 160h31z" />
<glyph unicode="&#xfc;" d="M445 420l-82 -420h-75l14 70q-86 -78 -166 -78q-51 0 -76.5 30t-25.5 80q0 22 4 42l54 276h79l-52 -264q-4 -17 -4 -35q0 -63 64 -63q60 0 131 71l56 291h79zM254 541q0 -19 -14 -33t-33 -14t-32.5 14t-13.5 33t13.5 33t32.5 14t33 -14t14 -33zM427 541q0 -19 -13.5 -33 t-32.5 -14t-33 14t-14 33t14 33t33 14t32.5 -14t13.5 -33z" />
<glyph unicode="&#xfd;" horiz-adv-x="420" d="M454 420l-412 -636h-78l172 267l-89 369h78l63 -298l181 298h85zM416 570l-190 -96l-19 44l171 127z" />
<glyph unicode="&#xfe;" horiz-adv-x="476" d="M441 256q0 -108 -67.5 -186t-170.5 -78q-53 0 -104 28l-46 -236h-79l185 949h78l-66 -342q51 37 116 37q70 0 112 -50.5t42 -121.5zM364 244q0 53 -28.5 84.5t-77.5 31.5q-55 0 -101 -41l-45 -229q38 -30 95 -30q66 0 111.5 52.5t45.5 131.5z" />
<glyph unicode="&#xff;" horiz-adv-x="420" d="M454 420l-412 -636h-78l172 267l-89 369h78l63 -298l181 298h85zM229 541q0 -19 -13.5 -33t-33.5 -14q-19 0 -32.5 14t-13.5 33t13.5 33t32.5 14q20 0 33.5 -14t13.5 -33zM402 541q0 -19 -13.5 -33t-32.5 -14q-20 0 -33.5 14t-13.5 33t13.5 33t33.5 14q19 0 32.5 -14 t13.5 -33z" />
<glyph unicode="&#x100;" horiz-adv-x="662" d="M614 0h-85l-43 203h-316l-124 -203h-85l465 746h12zM471 270l-67 315l-193 -315h260zM602 890l-13 -68h-278l13 68h278z" />
<glyph unicode="&#x101;" horiz-adv-x="425" d="M386 293q0 -25 -6 -57l-47 -236h-73l8 42q-55 -50 -124 -50q-52 0 -89.5 33t-37.5 90q0 61 47 102t123 41q68 0 113 -32l5 26q4 24 4 33q0 32 -21 52.5t-59 20.5q-48 0 -108 -23l-7 70q71 23 126 23q146 0 146 -135zM288 163q-39 34 -103 34q-40 0 -67 -21.5t-27 -55.5 q0 -30 19.5 -47.5t56.5 -17.5q55 0 110 52zM421 570l-13 -68h-278l13 68h278z" />
<glyph unicode="&#x102;" horiz-adv-x="662" d="M614 0h-85l-43 203h-316l-124 -203h-85l465 746h12zM471 270l-67 315l-193 -315h260zM605 944q-26 -146 -157 -146q-58 0 -91 31t-33 83q0 21 2 32l67 5q-2 -10 -2 -31q0 -31 17 -47t47 -16q67 0 82 94z" />
<glyph unicode="&#x103;" horiz-adv-x="425" d="M386 293q0 -25 -6 -57l-47 -236h-73l8 42q-55 -50 -124 -50q-52 0 -89.5 33t-37.5 90q0 61 47 102t123 41q68 0 113 -32l5 26q4 24 4 33q0 32 -21 52.5t-59 20.5q-48 0 -108 -23l-7 70q71 23 126 23q146 0 146 -135zM288 163q-39 34 -103 34q-40 0 -67 -21.5t-27 -55.5 q0 -30 19.5 -47.5t56.5 -17.5q55 0 110 52zM431 624q-26 -146 -157 -146q-58 0 -91 31t-33 83q0 21 2 32l67 5q-2 -10 -2 -31q0 -31 17 -47t47 -16q67 0 82 94z" />
<glyph unicode="&#x104;" horiz-adv-x="662" d="M603 -169q-47 -49 -98 -50q-34 -1 -52.5 17.5t-18.5 50.5q0 69 95 151l-43 203h-316l-124 -203h-85l465 746h12l176 -746h-20q-2 -2 -15 -14t-18.5 -17.5l-17 -17t-17.5 -20t-13 -20t-10 -22t-3 -21.5q0 -32 26 -32q19 0 50 28zM471 270l-67 315l-193 -315h260z" />
<glyph unicode="&#x105;" horiz-adv-x="425" d="M331 -169q-47 -49 -98 -50q-34 -1 -52.5 17.5t-18.5 50.5q0 71 98 154l8 39q-55 -50 -124 -50q-52 0 -89.5 33t-37.5 90q0 61 47 102t123 41q68 0 113 -32l5 26q4 24 4 33q0 32 -21 52.5t-59 20.5q-48 0 -108 -23l-7 70q71 23 126 23q146 0 146 -135q0 -25 -6 -57 l-47 -236h-11q-2 -2 -15 -14t-18.5 -17.5l-17 -17t-17.5 -20t-13 -20t-10 -22t-3 -21.5q0 -32 26 -32q19 0 50 28zM288 163q-39 34 -103 34q-40 0 -67 -21.5t-27 -55.5q0 -30 19.5 -47.5t56.5 -17.5q55 0 110 52z" />
<glyph unicode="&#x106;" horiz-adv-x="696" d="M720 670l-40 -63q-82 66 -201 66q-138 0 -232 -104t-94 -247q0 -119 72 -191t178 -72q95 0 200 62l31 -64q-111 -69 -241 -69t-226 91t-96 235q0 121 61 221.5t157 155t202 54.5q65 0 127 -22t102 -53zM657 890l-190 -96l-19 44l171 127z" />
<glyph unicode="&#x107;" horiz-adv-x="412" d="M418 384l-37 -57q-53 34 -109 34q-67 0 -113 -53.5t-46 -126.5q0 -58 37 -90t93 -32q53 0 97 22l13 -62q-68 -27 -127 -27q-75 0 -131.5 49t-56.5 137q0 98 71 174t176 76q71 0 133 -44zM446 570l-190 -96l-19 44l171 127z" />
<glyph unicode="&#x10a;" horiz-adv-x="696" d="M720 670l-40 -63q-82 66 -201 66q-138 0 -232 -104t-94 -247q0 -119 72 -191t178 -72q95 0 200 62l31 -64q-111 -69 -241 -69t-226 91t-96 235q0 121 61 221.5t157 155t202 54.5q65 0 127 -22t102 -53zM557 861q0 -19 -13.5 -33t-33.5 -14q-19 0 -32.5 14t-13.5 33 t13.5 33t32.5 14q20 0 33.5 -14t13.5 -33z" />
<glyph unicode="&#x10b;" horiz-adv-x="412" d="M418 384l-37 -57q-53 34 -109 34q-67 0 -113 -53.5t-46 -126.5q0 -58 37 -90t93 -32q53 0 97 22l13 -62q-68 -27 -127 -27q-75 0 -131.5 49t-56.5 137q0 98 71 174t176 76q71 0 133 -44zM346 541q0 -19 -14 -33t-33 -14t-32.5 14t-13.5 33t13.5 33t32.5 14t33 -14t14 -33 z" />
<glyph unicode="&#x10c;" horiz-adv-x="696" d="M720 670l-40 -63q-82 66 -201 66q-138 0 -232 -104t-94 -247q0 -119 72 -191t178 -72q95 0 200 62l31 -64q-111 -69 -241 -69t-226 91t-96 235q0 121 61 221.5t157 155t202 54.5q65 0 127 -22t102 -53zM681 965l-165 -161h-30l-99 161h77l50 -84l83 84h84z" />
<glyph unicode="&#x10d;" horiz-adv-x="412" d="M418 384l-37 -57q-53 34 -109 34q-67 0 -113 -53.5t-46 -126.5q0 -58 37 -90t93 -32q53 0 97 22l13 -62q-68 -27 -127 -27q-75 0 -131.5 49t-56.5 137q0 98 71 174t176 76q71 0 133 -44zM470 645l-165 -161h-30l-99 161h77l50 -84l83 84h84z" />
<glyph unicode="&#x10e;" horiz-adv-x="711" d="M223 -6q-82 0 -185 15l139 717q72 12 157 12q166 0 267 -101q90 -90 90 -228q0 -180 -127 -297.5t-341 -117.5zM337 670q-51 0 -93 -7l-115 -593q49 -7 119 -7q156 0 258.5 96t102.5 240q0 125 -73 198t-199 73zM609 965l-165 -161h-30l-99 161h77l50 -84l83 84h84z" />
<glyph unicode="&#x10f;" horiz-adv-x="476" d="M517 733l-142 -733h-74l6 31q-51 -39 -113 -39q-64 0 -112.5 51.5t-48.5 125.5q0 106 67.5 182.5t169.5 76.5q58 0 104 -31l64 336h79zM361 330q-40 32 -94 32q-67 0 -112 -50t-45 -129q0 -58 29.5 -90.5t80.5 -32.5q54 0 95 35zM608 733l75 -14q-20 -120 -128 -189 l-34 31q65 61 87 172z" />
<glyph unicode="&#x110;" horiz-adv-x="731" d="M711 409q0 -180 -127 -297.5t-341 -117.5q-82 0 -185 15l63 327h-90l14 72h90l62 318q72 12 157 12q166 0 267 -101q90 -90 90 -228zM629 399q0 125 -73 198t-199 73q-51 0 -93 -7l-50 -255h110l-14 -72h-110l-51 -266q49 -7 119 -7q156 0 258.5 96t102.5 240z" />
<glyph unicode="&#x111;" horiz-adv-x="476" d="M517 733l-21 -107h61l-13 -65h-60l-109 -561h-74l6 31q-51 -39 -113 -39q-64 0 -112.5 51.5t-48.5 125.5q0 106 67.5 182.5t169.5 76.5q58 0 104 -31l31 164h-140l13 65h139l21 107h79zM361 330q-40 32 -94 32q-67 0 -112 -50t-45 -129q0 -58 29.5 -90.5t80.5 -32.5 q54 0 95 35z" />
<glyph unicode="&#x112;" horiz-adv-x="551" d="M589 733l-14 -72h-331l-49 -253h296l-14 -72h-296l-52 -264h332l-14 -72h-411l143 733h410zM553 890l-13 -68h-278l13 68h278z" />
<glyph unicode="&#x113;" horiz-adv-x="451" d="M221 -8q-81 0 -133 42t-52 130q0 100 68 182t167 82q73 0 113.5 -48t40.5 -118q0 -29 -10 -66h-303q-1 -7 -1 -25q0 -56 32 -84t87 -28q47 0 108 22l13 -64q-63 -25 -130 -25zM449 570l-13 -68h-278l13 68h278zM128 255h221q1 7 1 20q-1 38 -24 62t-62 24 q-43 0 -79.5 -29.5t-56.5 -76.5z" />
<glyph unicode="&#x114;" horiz-adv-x="551" d="M589 733l-14 -72h-331l-49 -253h296l-14 -72h-296l-52 -264h332l-14 -72h-411l143 733h410zM563 944q-26 -146 -157 -146q-58 0 -91 31t-33 83q0 21 2 32l67 5q-2 -10 -2 -31q0 -31 17 -47t47 -16q67 0 82 94z" />
<glyph unicode="&#x115;" horiz-adv-x="451" d="M221 -8q-81 0 -133 42t-52 130q0 100 68 182t167 82q73 0 113.5 -48t40.5 -118q0 -29 -10 -66h-303q-1 -7 -1 -25q0 -56 32 -84t87 -28q47 0 108 22l13 -64q-63 -25 -130 -25zM459 624q-26 -146 -157 -146q-58 0 -91 31t-33 83q0 21 2 32l67 5q-2 -10 -2 -31 q0 -31 17 -47t47 -16q67 0 82 94zM128 255h221q1 7 1 20q-1 38 -24 62t-62 24q-43 0 -79.5 -29.5t-56.5 -76.5z" />
<glyph unicode="&#x116;" horiz-adv-x="551" d="M589 733l-14 -72h-331l-49 -253h296l-14 -72h-296l-52 -264h332l-14 -72h-411l143 733h410zM455 861q0 -19 -13.5 -33t-33.5 -14q-19 0 -32.5 14t-13.5 33t13.5 33t32.5 14q20 0 33.5 -14t13.5 -33z" />
<glyph unicode="&#x117;" horiz-adv-x="451" d="M221 -8q-81 0 -133 42t-52 130q0 100 68 182t167 82q73 0 113.5 -48t40.5 -118q0 -29 -10 -66h-303q-1 -7 -1 -25q0 -56 32 -84t87 -28q47 0 108 22l13 -64q-63 -25 -130 -25zM128 255h221q1 7 1 20q-1 38 -24 62t-62 24q-43 0 -79.5 -29.5t-56.5 -76.5zM351 541 q0 -19 -13.5 -33t-33.5 -14q-19 0 -32.5 14t-13.5 33t13.5 33t32.5 14q20 0 33.5 -14t13.5 -33z" />
<glyph unicode="&#x118;" horiz-adv-x="551" d="M419 -169q-47 -49 -98 -50q-34 -1 -52.5 17.5t-18.5 50.5q0 69 95 151h-309l143 733h410l-14 -72h-331l-49 -253h296l-14 -72h-296l-52 -264h332l-14 -72h-37q-2 -2 -15 -14t-18.5 -17.5l-17 -17t-17.5 -20t-13 -20t-10 -22t-3 -21.5q0 -32 26 -32q19 0 50 28z" />
<glyph unicode="&#x119;" horiz-adv-x="451" d="M221 -8q-81 0 -133 42t-52 130q0 100 68 182t167 82q73 0 113.5 -48t40.5 -118q0 -29 -10 -66h-303q-1 -7 -1 -25q0 -56 32 -84t87 -28q47 0 108 22l13 -64q-109 -92 -109 -148q0 -33 27 -33q18 0 49 28l27 -33q-47 -49 -98 -50q-34 -1 -52.5 17.5t-18.5 50.5 q0 66 86 145q-24 -2 -41 -2zM128 255h221q1 7 1 20q-1 38 -24 62t-62 24q-43 0 -79.5 -29.5t-56.5 -76.5z" />
<glyph unicode="&#x11a;" horiz-adv-x="551" d="M589 733l-14 -72h-331l-49 -253h296l-14 -72h-296l-52 -264h332l-14 -72h-411l143 733h410zM579 965l-165 -161h-30l-99 161h77l50 -84l83 84h84z" />
<glyph unicode="&#x11b;" horiz-adv-x="451" d="M221 -8q-81 0 -133 42t-52 130q0 100 68 182t167 82q73 0 113.5 -48t40.5 -118q0 -29 -10 -66h-303q-1 -7 -1 -25q0 -56 32 -84t87 -28q47 0 108 22l13 -64q-63 -25 -130 -25zM475 645l-165 -161h-30l-99 161h77l50 -84l83 84h84zM128 255h221q1 7 1 20q-1 38 -24 62 t-62 24q-43 0 -79.5 -29.5t-56.5 -76.5z" />
<glyph unicode="&#x11e;" horiz-adv-x="747" d="M707 363l-58 -297q-63 -41 -121 -59.5t-135 -18.5q-130 0 -226 91t-96 235q0 121 61 221.5t156.5 155t201.5 54.5q66 0 133 -22t106 -53l-40 -63q-36 29 -94 47.5t-117 18.5q-137 0 -231 -104t-94 -247q0 -119 71.5 -191t178.5 -72q100 0 175 48l36 184h-195l14 72h274z M669 944q-26 -146 -157 -146q-58 0 -91 31t-33 83q0 21 2 32l67 5q-2 -10 -2 -31q0 -31 17 -47t47 -16q67 0 82 94z" />
<glyph unicode="&#x11f;" horiz-adv-x="477" d="M458 420l-89 -459q-18 -93 -74 -139t-140 -46q-65 0 -135 26l25 69q60 -22 113 -22q58 0 89 24.5t42 80.5l13 65q-43 -27 -95 -27q-71 0 -122.5 52t-51.5 125q0 106 68 182.5t170 76.5q56 0 108 -33l5 25h74zM362 330q-39 31 -94 31q-67 0 -112.5 -50t-45.5 -128 q0 -58 31.5 -91t83.5 -33q49 0 91 36zM473 624q-26 -146 -157 -146q-58 0 -91 31t-33 83q0 21 2 32l67 5q-2 -10 -2 -31q0 -31 17 -47t47 -16q67 0 82 94z" />
<glyph unicode="&#x120;" horiz-adv-x="747" d="M707 363l-58 -297q-63 -41 -121 -59.5t-135 -18.5q-130 0 -226 91t-96 235q0 121 61 221.5t156.5 155t201.5 54.5q66 0 133 -22t106 -53l-40 -63q-36 29 -94 47.5t-117 18.5q-137 0 -231 -104t-94 -247q0 -119 71.5 -191t178.5 -72q100 0 175 48l36 184h-195l14 72h274z M561 861q0 -19 -13.5 -33t-33.5 -14q-19 0 -32.5 14t-13.5 33t13.5 33t32.5 14q20 0 33.5 -14t13.5 -33z" />
<glyph unicode="&#x121;" horiz-adv-x="477" d="M458 420l-89 -459q-18 -93 -74 -139t-140 -46q-65 0 -135 26l25 69q60 -22 113 -22q58 0 89 24.5t42 80.5l13 65q-43 -27 -95 -27q-71 0 -122.5 52t-51.5 125q0 106 68 182.5t170 76.5q56 0 108 -33l5 25h74zM362 330q-39 31 -94 31q-67 0 -112.5 -50t-45.5 -128 q0 -58 31.5 -91t83.5 -33q49 0 91 36zM365 541q0 -19 -13.5 -33t-33.5 -14q-19 0 -32.5 14t-13.5 33t13.5 33t32.5 14q20 0 33.5 -14t13.5 -33z" />
<glyph unicode="&#x122;" horiz-adv-x="747" d="M707 363l-58 -297q-63 -41 -121 -59.5t-135 -18.5q-130 0 -226 91t-96 235q0 121 61 221.5t156.5 155t201.5 54.5q66 0 133 -22t106 -53l-40 -63q-36 29 -94 47.5t-117 18.5q-137 0 -231 -104t-94 -247q0 -119 71.5 -191t178.5 -72q100 0 175 48l36 184h-195l14 72h274z M377 -128q0 -84 -129 -160l-11 16q61 49 84 99q-20 4 -31 18.5t-11 32.5q0 20 14.5 34.5t34.5 14.5q21 0 35 -15.5t14 -39.5z" />
<glyph unicode="&#x123;" horiz-adv-x="477" d="M458 420l-89 -459q-18 -93 -74 -139t-140 -46q-65 0 -135 26l25 69q60 -22 113 -22q58 0 89 24.5t42 80.5l13 65q-43 -27 -95 -27q-71 0 -122.5 52t-51.5 125q0 106 68 182.5t170 76.5q56 0 108 -33l5 25h74zM362 330q-39 31 -94 31q-67 0 -112.5 -50t-45.5 -128 q0 -58 31.5 -91t83.5 -33q49 0 91 36zM270 549q0 84 129 160l11 -16q-61 -49 -84 -99q20 -4 31 -18.5t11 -32.5q0 -20 -14.5 -34.5t-34.5 -14.5q-21 0 -35 15.5t-14 39.5z" />
<glyph unicode="&#x126;" horiz-adv-x="694" d="M713 733l-24 -122h80l-13 -68h-80l-106 -543h-79l65 336h-375l-66 -336h-79l106 543h-80l13 68h80l24 122h79l-24 -122h376l24 122h79zM195 408h375l26 135h-375z" />
<glyph unicode="&#x127;" d="M427 318q0 -22 -4 -42l-54 -276h-79l52 264q4 17 4 35q0 63 -64 63q-62 0 -131 -71l-56 -291h-79l108 561h-56l13 65h56l21 107h79l-21 -107h144l-13 -65h-144l-40 -208q81 75 162 75q51 0 76.5 -30t25.5 -80z" />
<glyph unicode="&#x12a;" horiz-adv-x="246" d="M264 733l-143 -733h-79l143 733h79zM394 890l-13 -68h-278l13 68h278z" />
<glyph unicode="&#x12b;" horiz-adv-x="203" d="M182 420l-82 -420h-79l82 420h79zM310 570l-13 -68h-278l13 68h278z" />
<glyph unicode="&#x12c;" horiz-adv-x="246" d="M264 733l-143 -733h-79l143 733h79zM404 944q-26 -146 -157 -146q-58 0 -91 31t-33 83q0 21 2 32l67 5q-2 -10 -2 -31q0 -31 17 -47t47 -16q67 0 82 94z" />
<glyph unicode="&#x12d;" horiz-adv-x="203" d="M182 420l-82 -420h-79l82 420h79zM320 624q-26 -146 -157 -146q-58 0 -91 31t-33 83q0 21 2 32l67 5q-2 -10 -2 -31q0 -31 17 -47t47 -16q67 0 82 94z" />
<glyph unicode="&#x12e;" horiz-adv-x="246" d="M264 733l-143 -733h-5q-2 -2 -15 -14t-18.5 -17.5l-17 -17t-17.5 -20t-13 -20t-10 -22t-3 -21.5q0 -32 26 -32q19 0 50 28l27 -33q-47 -49 -98 -50q-34 -1 -52.5 17.5t-18.5 50.5q0 68 95 151h-9l143 733h79z" />
<glyph unicode="&#x12f;" horiz-adv-x="203" d="M182 420l-82 -420h-7q-2 -2 -15 -14t-18.5 -17.5l-17 -17t-17.5 -20t-13 -20t-10 -22t-3 -21.5q0 -32 26 -32q19 0 50 28l27 -33q-47 -49 -98 -50q-34 -1 -52.5 17.5t-18.5 50.5q0 68 95 151h-7l82 420h79zM220 564q0 -20 -14.5 -34.5t-34.5 -14.5q-21 0 -35.5 14.5 t-14.5 34.5t14.5 35t35.5 15q20 0 34.5 -15t14.5 -35z" />
<glyph unicode="&#x130;" horiz-adv-x="246" d="M264 733l-143 -733h-79l143 733h79zM296 861q0 -19 -14 -33t-33 -14t-32.5 14t-13.5 33t13.5 33t32.5 14t33 -14t14 -33z" />
<glyph unicode="&#x131;" horiz-adv-x="203" d="M182 420l-82 -420h-79l82 420h79z" />
<glyph unicode="&#x136;" horiz-adv-x="583" d="M661 733l-394 -360l267 -373h-100l-248 360l-71 -360h-79l143 733h79l-66 -341l362 341h107zM297 -128q0 -84 -129 -160l-11 16q61 49 84 99q-20 4 -31 18.5t-11 32.5q0 20 14.5 34.5t34.5 14.5q21 0 35 -15.5t14 -39.5z" />
<glyph unicode="&#x137;" horiz-adv-x="408" d="M441 420l-228 -203l157 -217h-87l-148 208l-40 -208h-79l142 733h79l-97 -499l200 186h101zM194 -128q0 -84 -129 -160l-11 16q61 49 84 99q-20 4 -31 18.5t-11 32.5q0 20 14.5 34.5t34.5 14.5q21 0 35 -15.5t14 -39.5z" />
<glyph unicode="&#x139;" horiz-adv-x="520" d="M460 72l-14 -72h-410l143 733h79l-129 -661h331zM419 890l-190 -96l-19 44l171 127z" />
<glyph unicode="&#x13a;" horiz-adv-x="203" d="M242 733l-142 -733h-79l142 733h79zM378 890l-190 -96l-19 44l171 127z" />
<glyph unicode="&#x13b;" horiz-adv-x="520" d="M460 72l-14 -72h-410l143 733h79l-129 -661h331zM268 -128q0 -84 -129 -160l-11 16q61 49 84 99q-20 4 -31 18.5t-11 32.5q0 20 14.5 34.5t34.5 14.5q21 0 35 -15.5t14 -39.5z" />
<glyph unicode="&#x13c;" horiz-adv-x="203" d="M242 733l-142 -733h-79l142 733h79zM90 -128q0 -84 -129 -160l-11 16q61 49 84 99q-20 4 -31 18.5t-11 32.5q0 20 14.5 34.5t34.5 14.5q21 0 35 -15.5t14 -39.5z" />
<glyph unicode="&#x13d;" horiz-adv-x="520" d="M460 72l-14 -72h-410l143 733h79l-129 -661h331zM376 723l75 -14q-20 -120 -128 -189l-34 31q65 61 87 172z" />
<glyph unicode="&#x13e;" horiz-adv-x="203" d="M242 733l-142 -733h-79l142 733h79zM329 733l75 -14q-20 -120 -128 -189l-34 31q65 61 87 172z" />
<glyph unicode="&#x13f;" horiz-adv-x="520" d="M460 72l-14 -72h-410l143 733h79l-129 -661h331zM458 363q0 -19 -14 -33t-33 -14t-32.5 14t-13.5 33t13.5 33t32.5 14t33 -14t14 -33z" />
<glyph unicode="&#x140;" horiz-adv-x="279" d="M242 733l-142 -733h-79l142 733h79zM317 366q0 -20 -13.5 -33.5t-33.5 -13.5q-19 0 -32.5 14t-13.5 33t13.5 33t32.5 14q20 0 33.5 -13.5t13.5 -33.5z" />
<glyph unicode="&#x141;" horiz-adv-x="535" d="M475 72l-14 -72h-410l59 303l-62 -26l15 79l62 26l69 351h79l-61 -314l96 39l-15 -79l-97 -40l-52 -267h331z" />
<glyph unicode="&#x142;" horiz-adv-x="203" d="M242 733l-61 -317l47 22l-15 -79l-48 -22l-65 -337h-79l58 298l-47 -21l15 79l47 21l69 356h79z" />
<glyph unicode="&#x143;" horiz-adv-x="707" d="M726 733l-145 -744l-11 -3l-345 575l-110 -561h-79l145 743l16 4l342 -566l108 552h79zM621 875l-190 -96l-19 44l171 127z" />
<glyph unicode="&#x144;" d="M427 318q0 -22 -4 -42l-54 -276h-79l52 264q4 17 4 35q0 63 -64 63q-60 0 -131 -71l-56 -291h-79l82 420h75l-14 -70q86 78 166 78q51 0 76.5 -30t25.5 -80zM444 570l-190 -96l-19 44l171 127z" />
<glyph unicode="&#x145;" horiz-adv-x="707" d="M726 733l-145 -744l-11 -3l-345 575l-110 -561h-79l145 743l16 4l342 -566l108 552h79zM340 -128q0 -84 -129 -160l-11 16q61 49 84 99q-20 4 -31 18.5t-11 32.5q0 20 14.5 34.5t34.5 14.5q21 0 35 -15.5t14 -39.5z" />
<glyph unicode="&#x146;" d="M427 318q0 -22 -4 -42l-54 -276h-79l52 264q4 17 4 35q0 63 -64 63q-60 0 -131 -71l-56 -291h-79l82 420h75l-14 -70q86 78 166 78q51 0 76.5 -30t25.5 -80zM223 -128q0 -84 -129 -160l-11 16q61 49 84 99q-20 4 -31 18.5t-11 32.5q0 20 14.5 34.5t34.5 14.5 q21 0 35 -15.5t14 -39.5z" />
<glyph unicode="&#x147;" horiz-adv-x="707" d="M726 733l-145 -744l-11 -3l-345 575l-110 -561h-79l145 743l16 4l342 -566l108 552h79zM645 950l-165 -161h-30l-99 161h77l50 -84l83 84h84z" />
<glyph unicode="&#x148;" d="M427 318q0 -22 -4 -42l-54 -276h-79l52 264q4 17 4 35q0 63 -64 63q-60 0 -131 -71l-56 -291h-79l82 420h75l-14 -70q86 78 166 78q51 0 76.5 -30t25.5 -80zM468 645l-165 -161h-30l-99 161h77l50 -84l83 84h84z" />
<glyph unicode="&#x14c;" horiz-adv-x="815" d="M797 414q0 -73 -28 -147.5t-77.5 -137t-127 -102t-167.5 -39.5q-143 0 -234 90.5t-91 240.5q0 73 28 147.5t77.5 137t127 102t167.5 39.5q143 0 234 -91t91 -240zM717 414q0 116 -66.5 187.5t-177.5 71.5q-137 0 -228.5 -104t-91.5 -251q0 -115 66 -187t177 -72 q137 0 229 104t92 251zM675 890l-13 -68h-278l13 68h278z" />
<glyph unicode="&#x14d;" horiz-adv-x="472" d="M359 252q0 50 -25.5 79.5t-71.5 29.5q-51 0 -95 -44q-58 -58 -58 -149q0 -50 25.5 -79.5t71.5 -29.5q51 0 95 44q58 58 58 149zM434 256q0 -52 -22 -105t-60 -92q-67 -67 -154 -67q-73 0 -118.5 47t-45.5 125q0 52 22 105t60 92q67 67 154 67q73 0 118.5 -47t45.5 -125z M445 570l-13 -68h-278l13 68h278z" />
<glyph unicode="&#x14e;" horiz-adv-x="815" d="M797 414q0 -73 -28 -147.5t-77.5 -137t-127 -102t-167.5 -39.5q-143 0 -234 90.5t-91 240.5q0 73 28 147.5t77.5 137t127 102t167.5 39.5q143 0 234 -91t91 -240zM717 414q0 116 -66.5 187.5t-177.5 71.5q-137 0 -228.5 -104t-91.5 -251q0 -115 66 -187t177 -72 q137 0 229 104t92 251zM685 944q-26 -146 -157 -146q-58 0 -91 31t-33 83q0 21 2 32l67 5q-2 -10 -2 -31q0 -31 17 -47t47 -16q67 0 82 94z" />
<glyph unicode="&#x14f;" horiz-adv-x="472" d="M359 252q0 50 -25.5 79.5t-71.5 29.5q-51 0 -95 -44q-58 -58 -58 -149q0 -50 25.5 -79.5t71.5 -29.5q51 0 95 44q58 58 58 149zM434 256q0 -52 -22 -105t-60 -92q-67 -67 -154 -67q-73 0 -118.5 47t-45.5 125q0 52 22 105t60 92q67 67 154 67q73 0 118.5 -47t45.5 -125z M463 624q-26 -146 -157 -146q-58 0 -91 31t-33 83q0 21 2 32l67 5q-2 -10 -2 -31q0 -31 17 -47t47 -16q67 0 82 94z" />
<glyph unicode="&#x150;" horiz-adv-x="815" d="M797 414q0 -73 -28 -147.5t-77.5 -137t-127 -102t-167.5 -39.5q-143 0 -234 90.5t-91 240.5q0 73 28 147.5t77.5 137t127 102t167.5 39.5q143 0 234 -91t91 -240zM717 414q0 116 -66.5 187.5t-177.5 71.5q-137 0 -228.5 -104t-91.5 -251q0 -115 66 -187t177 -72 q137 0 229 104t92 251zM602 956l-141 -154l-34 25l115 171zM735 945l-142 -155l-33 25l115 172z" />
<glyph unicode="&#x151;" horiz-adv-x="472" d="M359 252q0 50 -25.5 79.5t-71.5 29.5q-51 0 -95 -44q-58 -58 -58 -149q0 -50 25.5 -79.5t71.5 -29.5q51 0 95 44q58 58 58 149zM434 256q0 -52 -22 -105t-60 -92q-67 -67 -154 -67q-73 0 -118.5 47t-45.5 125q0 52 22 105t60 92q67 67 154 67q73 0 118.5 -47t45.5 -125z M372 636l-141 -154l-34 25l115 171zM505 625l-142 -155l-33 25l115 172z" />
<glyph unicode="&#x152;" horiz-adv-x="1022" d="M1060 733l-14 -72h-331l-49 -253h296l-14 -72h-296l-52 -264h332l-14 -72h-376q-15 0 -50 -3t-60 -3q-86 0 -155.5 28.5t-113 75.5t-66.5 105t-23 121q0 179 127.5 296.5t340.5 117.5q49 0 109 -5h409zM428 63q58 0 93 7l115 593q-50 7 -119 7q-156 0 -258.5 -96 t-102.5 -240q0 -125 73 -198t199 -73z" />
<glyph unicode="&#x153;" horiz-adv-x="768" d="M732 196h-303q-1 -7 -1 -25q0 -56 32 -84t87 -28q47 0 108 22l13 -64q-62 -25 -130 -25q-122 0 -165 88q-72 -88 -173 -88q-73 0 -118.5 47t-45.5 125q0 52 22 105t60 92q67 67 154 67q105 0 146 -86q69 86 170 86q74 0 114 -48t40 -118q0 -29 -10 -66zM264 361 q-52 0 -95 -43q-59 -59 -59 -147q0 -52 26 -82t72 -30q52 0 95 43q59 59 59 147q0 52 -26 82t-72 30zM667 255q1 6 1 15q0 40 -23.5 65.5t-63.5 25.5q-42 0 -79 -29.5t-57 -76.5h222z" />
<glyph unicode="&#x154;" horiz-adv-x="576" d="M562 530q0 -84 -52.5 -146.5t-146.5 -86.5l158 -297h-96l-145 285q-8 -1 -25 -1q-36 0 -83 5l-57 -289h-79l142 729q56 9 132 9q117 0 184.5 -58.5t67.5 -149.5zM480 523q0 64 -42.5 103.5t-120.5 39.5q-45 0 -73 -5l-58 -302q54 -4 82 -4q104 0 158 46t54 122zM541 890 l-190 -96l-19 44l171 127z" />
<glyph unicode="&#x155;" horiz-adv-x="282" d="M296 428l-14 -77h-2q-44 0 -72.5 -14.5t-57.5 -49.5l-55 -287h-79l82 420h75l-14 -70q54 78 137 78zM374 570l-190 -96l-19 44l171 127z" />
<glyph unicode="&#x156;" horiz-adv-x="576" d="M562 530q0 -84 -52.5 -146.5t-146.5 -86.5l158 -297h-96l-145 285q-8 -1 -25 -1q-36 0 -83 5l-57 -289h-79l142 729q56 9 132 9q117 0 184.5 -58.5t67.5 -149.5zM480 523q0 64 -42.5 103.5t-120.5 39.5q-45 0 -73 -5l-58 -302q54 -4 82 -4q104 0 158 46t54 122zM258 -128 q0 -84 -129 -160l-11 16q61 49 84 99q-20 4 -31 18.5t-11 32.5q0 20 14.5 34.5t34.5 14.5q21 0 35 -15.5t14 -39.5z" />
<glyph unicode="&#x157;" horiz-adv-x="282" d="M296 428l-14 -77h-2q-44 0 -72.5 -14.5t-57.5 -49.5l-55 -287h-79l82 420h75l-14 -70q54 78 137 78zM83 -128q0 -84 -129 -160l-11 16q61 49 84 99q-20 4 -31 18.5t-11 32.5q0 20 14.5 34.5t34.5 14.5q21 0 35 -15.5t14 -39.5z" />
<glyph unicode="&#x158;" horiz-adv-x="576" d="M562 530q0 -84 -52.5 -146.5t-146.5 -86.5l158 -297h-96l-145 285q-8 -1 -25 -1q-36 0 -83 5l-57 -289h-79l142 729q56 9 132 9q117 0 184.5 -58.5t67.5 -149.5zM480 523q0 64 -42.5 103.5t-120.5 39.5q-45 0 -73 -5l-58 -302q54 -4 82 -4q104 0 158 46t54 122zM565 965 l-165 -161h-30l-99 161h77l50 -84l83 84h84z" />
<glyph unicode="&#x159;" horiz-adv-x="282" d="M296 428l-14 -77h-2q-44 0 -72.5 -14.5t-57.5 -49.5l-55 -287h-79l82 420h75l-14 -70q54 78 137 78zM398 645l-165 -161h-30l-99 161h77l50 -84l83 84h84z" />
<glyph unicode="&#x15a;" horiz-adv-x="495" d="M516 685l-42 -64q-61 49 -137 49q-63 0 -98.5 -38t-35.5 -93q0 -31 17.5 -58t36 -41.5t54.5 -37.5q35 -23 52.5 -36t42.5 -38t36 -55t11 -68q0 -88 -59 -152.5t-171 -64.5q-58 0 -116 22t-101 59l43 64q83 -70 174 -70q75 0 112 36t37 96q0 26 -8.5 47.5t-31 42.5t-35 30 l-46.5 32q-41 27 -64 46t-44 55.5t-21 80.5q0 88 63 152t162 64q93 0 169 -60zM514 890l-190 -96l-19 44l171 127z" />
<glyph unicode="&#x15b;" horiz-adv-x="349" d="M336 386l-42 -56q-42 33 -84 33q-37 0 -57.5 -16.5t-20.5 -42.5q0 -19 17.5 -32t53.5 -30q50 -24 71.5 -47.5t21.5 -64.5q0 -63 -46 -100.5t-109 -37.5q-81 0 -143 55l46 54q51 -44 104 -44q37 0 57 17t20 47q0 16 -12 29t-23 19.5t-40 20.5q-30 15 -45.5 25.5t-28.5 31 t-13 48.5q0 58 47 95.5t111 37.5q66 0 115 -42zM384 570l-190 -96l-19 44l171 127z" />
<glyph unicode="&#x15e;" horiz-adv-x="495" d="M287 -138q0 -42 -31.5 -70.5t-81.5 -28.5q-55 0 -106 34l31 46q40 -27 80 -27q19 0 32.5 11.5t13.5 30.5q0 16 -20.5 29.5t-62.5 16.5l-3 8l37 80q-99 14 -170 77l43 64q83 -70 174 -70q75 0 112 36t37 96q0 26 -8.5 47.5t-31 42.5t-35 30l-46.5 32q-41 27 -64 46 t-44 55.5t-21 80.5q0 88 63 152t162 64q93 0 169 -60l-42 -64q-61 49 -137 49q-63 0 -98.5 -38t-35.5 -93q0 -31 17.5 -58t36 -41.5t54.5 -37.5q35 -23 52.5 -36t42.5 -38t36 -55t11 -68q0 -87 -59 -151.5t-170 -65.5l-18 -44q81 -23 81 -82z" />
<glyph unicode="&#x15f;" horiz-adv-x="349" d="M214 -138q0 -42 -31.5 -70.5t-81.5 -28.5q-55 0 -106 34l31 46q40 -27 80 -27q19 0 32.5 11.5t13.5 30.5q0 16 -20.5 29.5t-62.5 16.5l-3 8l39 83q-62 11 -107 52l46 54q51 -44 104 -44q37 0 57 17t20 47q0 16 -12 29t-23 19.5t-40 20.5q-30 15 -45.5 25.5t-28.5 31 t-13 48.5q0 58 47 95.5t111 37.5q66 0 115 -42l-42 -56q-42 33 -84 33q-37 0 -57.5 -16.5t-20.5 -42.5q0 -19 17.5 -32t53.5 -30q50 -24 71.5 -47.5t21.5 -64.5q0 -60 -41.5 -96.5t-101.5 -40.5l-20 -49q81 -23 81 -82z" />
<glyph unicode="&#x160;" horiz-adv-x="495" d="M516 685l-42 -64q-61 49 -137 49q-63 0 -98.5 -38t-35.5 -93q0 -31 17.5 -58t36 -41.5t54.5 -37.5q35 -23 52.5 -36t42.5 -38t36 -55t11 -68q0 -88 -59 -152.5t-171 -64.5q-58 0 -116 22t-101 59l43 64q83 -70 174 -70q75 0 112 36t37 96q0 26 -8.5 47.5t-31 42.5t-35 30 l-46.5 32q-41 27 -64 46t-44 55.5t-21 80.5q0 88 63 152t162 64q93 0 169 -60zM538 965l-165 -161h-30l-99 161h77l50 -84l83 84h84z" />
<glyph unicode="&#x161;" horiz-adv-x="349" d="M336 386l-42 -56q-42 33 -84 33q-37 0 -57.5 -16.5t-20.5 -42.5q0 -19 17.5 -32t53.5 -30q50 -24 71.5 -47.5t21.5 -64.5q0 -63 -46 -100.5t-109 -37.5q-81 0 -143 55l46 54q51 -44 104 -44q37 0 57 17t20 47q0 16 -12 29t-23 19.5t-40 20.5q-30 15 -45.5 25.5t-28.5 31 t-13 48.5q0 58 47 95.5t111 37.5q66 0 115 -42zM408 645l-165 -161h-30l-99 161h77l50 -84l83 84h84z" />
<glyph unicode="&#x162;" horiz-adv-x="597" d="M673 733l-14 -72h-236l-129 -661h-79l129 661h-236l14 72h551zM286 -128q0 -84 -129 -160l-11 16q61 49 84 99q-20 4 -31 18.5t-11 32.5q0 20 14.5 34.5t34.5 14.5q21 0 35 -15.5t14 -39.5z" />
<glyph unicode="&#x163;" horiz-adv-x="295" d="M310 420l-13 -68h-117l-46 -236q-2 -14 -2 -19q0 -36 59 -36q15 0 45 4l-13 -65q-37 -8 -65 -8q-102 0 -102 92q0 16 3 34l46 234h-76v7l90 69l17 85l82 31l-25 -124h117zM164 -128q0 -84 -129 -160l-11 16q61 49 84 99q-20 4 -31 18.5t-11 32.5q0 20 14.5 34.5 t34.5 14.5q21 0 35 -15.5t14 -39.5z" />
<glyph unicode="&#x164;" horiz-adv-x="597" d="M673 733l-14 -72h-236l-129 -661h-79l129 661h-236l14 72h551zM594 965l-165 -161h-30l-99 161h77l50 -84l83 84h84z" />
<glyph unicode="&#x165;" horiz-adv-x="295" d="M310 420l-13 -68h-117l-46 -236q-2 -14 -2 -19q0 -36 59 -36q15 0 45 4l-13 -65q-37 -8 -65 -8q-102 0 -102 92q0 16 3 34l46 234h-76v7l90 69l17 85l82 31l-25 -124h117zM327 680l75 -14q-20 -120 -128 -189l-34 31q65 61 87 172z" />
<glyph unicode="&#x16a;" horiz-adv-x="678" d="M705 733l-94 -483q-25 -128 -101 -195t-199 -67q-107 0 -170 62t-63 169q0 33 8 75l85 439h79l-87 -450q-6 -33 -6 -62q0 -76 43 -119t125 -43q87 0 137.5 49t71.5 157l92 468h79zM602 875l-13 -68h-278l13 68h278z" />
<glyph unicode="&#x16b;" d="M445 420l-82 -420h-75l14 70q-86 -78 -166 -78q-51 0 -76.5 30t-25.5 80q0 22 4 42l54 276h79l-52 -264q-4 -17 -4 -35q0 -63 64 -63q60 0 131 71l56 291h79zM439 570l-13 -68h-278l13 68h278z" />
<glyph unicode="&#x16c;" horiz-adv-x="678" d="M705 733l-94 -483q-25 -128 -101 -195t-199 -67q-107 0 -170 62t-63 169q0 33 8 75l85 439h79l-87 -450q-6 -33 -6 -62q0 -76 43 -119t125 -43q87 0 137.5 49t71.5 157l92 468h79zM612 929q-26 -146 -157 -146q-58 0 -91 31t-33 83q0 21 2 32l67 5q-2 -10 -2 -31 q0 -31 17 -47t47 -16q67 0 82 94z" />
<glyph unicode="&#x16d;" d="M445 420l-82 -420h-75l14 70q-86 -78 -166 -78q-51 0 -76.5 30t-25.5 80q0 22 4 42l54 276h79l-52 -264q-4 -17 -4 -35q0 -63 64 -63q60 0 131 71l56 291h79zM449 624q-26 -146 -157 -146q-58 0 -91 31t-33 83q0 21 2 32l67 5q-2 -10 -2 -31q0 -31 17 -47t47 -16 q67 0 82 94z" />
<glyph unicode="&#x16e;" horiz-adv-x="678" d="M705 733l-94 -483q-25 -128 -101 -195t-199 -67q-107 0 -170 62t-63 169q0 33 8 75l85 439h79l-87 -450q-6 -33 -6 -62q0 -76 43 -119t125 -43q87 0 137.5 49t71.5 157l92 468h79zM568 907q0 -46 -33 -83t-84 -37q-37 0 -61.5 24t-24.5 60q0 46 33 82.5t84 36.5 q37 0 61.5 -24t24.5 -59zM514 901q0 22 -10.5 34t-27.5 12q-22 0 -39.5 -20.5t-17.5 -49.5q0 -22 10.5 -34t27.5 -12q23 0 40 20t17 50z" />
<glyph unicode="&#x16f;" d="M445 420l-82 -420h-75l14 70q-86 -78 -166 -78q-51 0 -76.5 30t-25.5 80q0 22 4 42l54 276h79l-52 -264q-4 -17 -4 -35q0 -63 64 -63q60 0 131 71l56 291h79zM404 602q0 -46 -33 -83t-84 -37q-37 0 -61.5 24t-24.5 60q0 46 33 82.5t84 36.5q37 0 61.5 -24t24.5 -59z M350 596q0 22 -10.5 34t-27.5 12q-22 0 -39.5 -20.5t-17.5 -49.5q0 -22 10.5 -34t27.5 -12q23 0 40 20t17 50z" />
<glyph unicode="&#x170;" horiz-adv-x="678" d="M705 733l-94 -483q-25 -128 -101 -195t-199 -67q-107 0 -170 62t-63 169q0 33 8 75l85 439h79l-87 -450q-6 -33 -6 -62q0 -76 43 -119t125 -43q87 0 137.5 49t71.5 157l92 468h79zM529 941l-141 -154l-34 25l115 171zM662 930l-142 -155l-33 25l115 172z" />
<glyph unicode="&#x171;" d="M445 420l-82 -420h-75l14 70q-86 -78 -166 -78q-51 0 -76.5 30t-25.5 80q0 22 4 42l54 276h79l-52 -264q-4 -17 -4 -35q0 -63 64 -63q60 0 131 71l56 291h79zM366 636l-141 -154l-34 25l115 171zM499 625l-142 -155l-33 25l115 172z" />
<glyph unicode="&#x172;" horiz-adv-x="678" d="M705 733l-94 -483q-23 -119 -90.5 -185.5t-175.5 -74.5q-25 -24 -38 -37.5t-29 -38.5t-16 -46q0 -32 26 -32q19 0 50 28l27 -33q-47 -49 -98 -50q-34 -1 -52.5 17.5t-18.5 50.5q0 65 83 141q-93 9 -147 69.5t-54 159.5q0 33 8 75l85 439h79l-87 -450q-6 -33 -6 -62 q0 -76 43 -119t125 -43q87 0 137.5 49t71.5 157l92 468h79z" />
<glyph unicode="&#x173;" d="M362 -169q-47 -49 -98 -50q-34 -1 -52.5 17.5t-18.5 50.5q0 69 95 151l14 70q-86 -78 -166 -78q-51 0 -76.5 30t-25.5 80q0 22 4 42l54 276h79l-52 -264q-4 -17 -4 -35q0 -63 64 -63q60 0 131 71l56 291h79l-82 -420h-10q-2 -2 -15 -14t-18.5 -17.5l-17 -17t-17.5 -20 t-13 -20t-10 -22t-3 -21.5q0 -32 26 -32q19 0 50 28z" />
<glyph unicode="&#x174;" horiz-adv-x="898" d="M987 733l-347 -745l-14 -2l-114 576l-328 -576l-18 2l-57 745h83l38 -533l308 539h11l109 -546l238 540h91zM700 805h-76l-50 83l-84 -83h-84l165 160h31z" />
<glyph unicode="&#x175;" horiz-adv-x="594" d="M625 420l-229 -431h-13l-71 283l-182 -283h-13l-66 431h78l33 -274l170 276h13l65 -276l132 274h83zM496 485h-76l-50 83l-84 -83h-84l165 160h31z" />
<glyph unicode="&#x176;" horiz-adv-x="584" d="M681 733l-326 -412l-63 -321h-79l63 324l-171 409h80l144 -343l261 343h91zM548 790h-76l-50 83l-84 -83h-84l165 160h31z" />
<glyph unicode="&#x177;" horiz-adv-x="420" d="M454 420l-412 -636h-78l172 267l-89 369h78l63 -298l181 298h85zM400 485h-76l-50 83l-84 -83h-84l165 160h31z" />
<glyph unicode="&#x178;" horiz-adv-x="584" d="M681 733l-326 -412l-63 -321h-79l63 324l-171 409h80l144 -343l261 343h91zM377 846q0 -20 -13.5 -33.5t-33.5 -13.5q-19 0 -32.5 14t-13.5 33t13.5 33t32.5 14q20 0 33.5 -13.5t13.5 -33.5zM550 846q0 -19 -13.5 -33t-32.5 -14q-20 0 -33.5 13.5t-13.5 33.5t13.5 33.5 t33.5 13.5q19 0 32.5 -14t13.5 -33z" />
<glyph unicode="&#x179;" horiz-adv-x="599" d="M659 721l-522 -649h391l-14 -72h-512l-3 11l523 650h-371l14 72h492zM572 890l-190 -96l-19 44l171 127z" />
<glyph unicode="&#x17a;" horiz-adv-x="405" d="M423 408l-313 -342h242l-13 -66h-357l-3 11l313 343h-227l12 66h344zM412 570l-190 -96l-19 44l171 127z" />
<glyph unicode="&#x17b;" horiz-adv-x="599" d="M659 721l-522 -649h391l-14 -72h-512l-3 11l523 650h-371l14 72h492zM472 861q0 -19 -14 -33t-33 -14t-32.5 14t-13.5 33t13.5 33t32.5 14t33 -14t14 -33z" />
<glyph unicode="&#x17c;" horiz-adv-x="405" d="M423 408l-313 -342h242l-13 -66h-357l-3 11l313 343h-227l12 66h344zM312 541q0 -19 -14 -33t-33 -14t-32.5 14t-13.5 33t13.5 33t32.5 14t33 -14t14 -33z" />
<glyph unicode="&#x17d;" horiz-adv-x="599" d="M659 721l-522 -649h391l-14 -72h-512l-3 11l523 650h-371l14 72h492zM596 965l-165 -161h-30l-99 161h77l50 -84l83 84h84z" />
<glyph unicode="&#x17e;" horiz-adv-x="405" d="M423 408l-313 -342h242l-13 -66h-357l-3 11l313 343h-227l12 66h344zM436 645l-165 -161h-30l-99 161h77l50 -84l83 84h84z" />
<glyph unicode="&#x192;" horiz-adv-x="389" d="M426 577l-28 -71q-20 5 -41 5q-40 0 -62.5 -25.5t-43.5 -91.5l-16 -50h87l-13 -68h-95l-86 -276h-79l86 276h-58v7l80 62l12 39q33 108 78.5 155t120.5 47q26 0 58 -9z" />
<glyph unicode="&#x1fa;" horiz-adv-x="662" d="M636 1054l-190 -96l-19 44l171 127zM548 829q0 -42 -28.5 -77.5t-73.5 -41.5l168 -710h-85l-43 203h-316l-124 -203h-85l444 712q-27 8 -43.5 30t-16.5 51q0 46 33 82.5t84 36.5q37 0 61.5 -24t24.5 -59zM471 270l-67 315l-193 -315h260zM494 823q0 22 -10.5 34t-27.5 12 q-22 0 -39.5 -20.5t-17.5 -49.5q0 -22 10.5 -34t27.5 -12q23 0 40 20t17 50z" />
<glyph unicode="&#x1fb;" horiz-adv-x="425" d="M475 827l-190 -96l-19 44l171 127zM386 293q0 -25 -6 -57l-47 -236h-73l8 42q-55 -50 -124 -50q-52 0 -89.5 33t-37.5 90q0 61 47 102t123 41q68 0 113 -32l5 26q4 24 4 33q0 32 -21 52.5t-59 20.5q-48 0 -108 -23l-7 70q71 23 126 23q146 0 146 -135zM288 163 q-39 34 -103 34q-40 0 -67 -21.5t-27 -55.5q0 -30 19.5 -47.5t56.5 -17.5q55 0 110 52zM387 602q0 -46 -33 -83t-84 -37q-37 0 -61.5 24t-24.5 60q0 46 33 82.5t84 36.5q37 0 61.5 -24t24.5 -59zM333 596q0 22 -10.5 34t-27.5 12q-22 0 -39.5 -20.5t-17.5 -49.5 q0 -22 10.5 -34t27.5 -12q23 0 40 20t17 50z" />
<glyph unicode="&#x1fc;" horiz-adv-x="984" d="M1022 733l-14 -72h-331l-49 -253h296l-14 -72h-296l-52 -264h332l-14 -72h-411l46 236h-253l-209 -236h-92l651 733h410zM528 303l59 301l-266 -301h207zM904 890l-190 -96l-19 44l171 127z" />
<glyph unicode="&#x1fd;" horiz-adv-x="709" d="M156 -8q-61 0 -100 32.5t-39 90.5q0 61 47 102t123 41q68 0 113 -32l6 31q3 15 3 27q0 75 -80 75q-50 0 -108 -23l-8 66q69 27 127 27q102 0 125 -80q69 79 164 79q73 0 113.5 -48t40.5 -118q0 -29 -10 -66h-304q-1 -7 -1 -25q0 -56 32.5 -84t87.5 -28q47 0 108 22 l13 -64q-64 -25 -130 -25q-122 0 -164 84q-26 -39 -68.5 -61.5t-90.5 -22.5zM167 55q42 0 76 29.5t45 78.5q-39 34 -103 34q-40 0 -67 -21.5t-27 -55.5q0 -30 19.5 -47.5t56.5 -17.5zM385 255h222q1 7 1 16q0 40 -23.5 65t-62.5 25q-43 0 -80 -29.5t-57 -76.5zM552 570 l-190 -96l-19 44l171 127z" />
<glyph unicode="&#x1fe;" horiz-adv-x="815" d="M797 414q0 -73 -28 -147.5t-77.5 -137t-127 -102t-167.5 -39.5q-135 0 -224 81l-80 -75l-44 52l79 75q-56 85 -56 198q0 73 28 147.5t77.5 137t127 102t167.5 39.5q136 0 225 -83l79 76l44 -52l-80 -75q57 -84 57 -197zM717 414q0 80 -34 142l-455 -434q65 -63 168 -63 q137 0 229 104t92 251zM153 318q0 -79 33 -142l456 434q-66 63 -169 63q-137 0 -228.5 -104t-91.5 -251zM677 890l-190 -96l-19 44l171 127z" />
<glyph unicode="&#x1ff;" horiz-adv-x="472" d="M434 256q0 -52 -22 -105t-60 -92q-67 -67 -154 -67q-74 0 -120 49l-58 -49l-38 41l66 56q-14 34 -14 75q0 52 22 105t60 92q67 67 154 67q74 0 120 -49l59 49l37 -41l-66 -56q14 -34 14 -75zM359 252q0 10 -2 26l-223 -189q27 -30 72 -30q51 0 95 44q58 58 58 149z M109 168q0 -9 2 -25l223 188q-27 30 -72 30q-51 0 -95 -44q-58 -58 -58 -149zM447 570l-190 -96l-19 44l171 127z" />
<glyph unicode="&#x218;" horiz-adv-x="495" d="M516 685l-42 -64q-61 49 -137 49q-63 0 -98.5 -38t-35.5 -93q0 -31 17.5 -58t36 -41.5t54.5 -37.5q35 -23 52.5 -36t42.5 -38t36 -55t11 -68q0 -88 -59 -152.5t-171 -64.5q-58 0 -116 22t-101 59l43 64q83 -70 174 -70q75 0 112 36t37 96q0 26 -8.5 47.5t-31 42.5t-35 30 l-46.5 32q-41 27 -64 46t-44 55.5t-21 80.5q0 88 63 152t162 64q93 0 169 -60zM230 -128q0 -84 -129 -160l-11 16q61 49 84 99q-20 4 -31 18.5t-11 32.5q0 20 14.5 34.5t34.5 14.5q21 0 35 -15.5t14 -39.5z" />
<glyph unicode="&#x219;" horiz-adv-x="349" d="M336 386l-42 -56q-42 33 -84 33q-37 0 -57.5 -16.5t-20.5 -42.5q0 -19 17.5 -32t53.5 -30q50 -24 71.5 -47.5t21.5 -64.5q0 -63 -46 -100.5t-109 -37.5q-81 0 -143 55l46 54q51 -44 104 -44q37 0 57 17t20 47q0 16 -12 29t-23 19.5t-40 20.5q-30 15 -45.5 25.5t-28.5 31 t-13 48.5q0 58 47 95.5t111 37.5q66 0 115 -42zM162 -128q0 -84 -129 -160l-11 16q61 49 84 99q-20 4 -31 18.5t-11 32.5q0 20 14.5 34.5t34.5 14.5q21 0 35 -15.5t14 -39.5z" />
<glyph unicode="&#x259;" horiz-adv-x="451" d="M230 428q81 0 133 -42t52 -130q0 -100 -68 -182t-167 -82q-73 0 -113.5 48t-40.5 118q0 29 10 66h303q1 7 1 25q0 56 -32 84t-87 28q-47 0 -108 -22l-13 64q62 25 130 25zM323 165h-221q-1 -7 -1 -20q1 -38 24 -62t62 -24q43 0 79.5 29.5t56.5 76.5z" />
<glyph unicode="&#x2c6;" horiz-adv-x="440" d="M417 485h-76l-50 83l-84 -83h-84l165 160h31z" />
<glyph unicode="&#x2c7;" horiz-adv-x="440" d="M447 645l-165 -161h-30l-99 161h77l50 -84l83 84h84z" />
<glyph unicode="&#x2d8;" horiz-adv-x="440" d="M430 624q-26 -146 -157 -146q-58 0 -91 31t-33 83q0 21 2 32l67 5q-2 -10 -2 -31q0 -31 17 -47t47 -16q67 0 82 94z" />
<glyph unicode="&#x2d9;" horiz-adv-x="440" d="M332 541q0 -19 -14 -33t-33 -14t-32.5 14t-13.5 33t13.5 33t32.5 14t33 -14t14 -33z" />
<glyph unicode="&#x2da;" horiz-adv-x="440" d="M389 602q0 -46 -33 -83t-84 -37q-37 0 -61.5 24t-24.5 60q0 46 33 82.5t84 36.5q37 0 61.5 -24t24.5 -59zM335 596q0 22 -10.5 34t-27.5 12q-22 0 -39.5 -20.5t-17.5 -49.5q0 -22 10.5 -34t27.5 -12q23 0 40 20t17 50z" />
<glyph unicode="&#x2db;" horiz-adv-x="440" d="M280 -169q-47 -49 -98 -50q-34 -1 -52.5 17.5t-18.5 50.5q0 46 35.5 90t103.5 97l26 -31l-26 -25q-27 -25 -37 -36.5t-23 -34t-13 -41.5q0 -32 26 -32q19 0 50 28z" />
<glyph unicode="&#x2dc;" horiz-adv-x="440" d="M433 560q-55 -61 -107 -61q-26 0 -56 20q-32 19 -49 19q-24 0 -58 -34l-32 41q48 54 100 54q24 0 56 -21q30 -19 49 -19q16 0 28 8.5t36 32.5z" />
<glyph unicode="&#x2dd;" horiz-adv-x="440" d="M306 636l-141 -154l-34 25l115 171zM439 625l-142 -155l-33 25l115 172z" />
<glyph unicode="&#x326;" horiz-adv-x="245" d="M184 -128q0 -84 -129 -160l-11 16q61 49 84 99q-20 4 -31 18.5t-11 32.5q0 20 14.5 34.5t34.5 14.5q21 0 35 -15.5t14 -39.5z" />
<glyph unicode="&#x1e80;" horiz-adv-x="898" d="M987 733l-347 -745l-14 -2l-114 576l-328 -576l-18 2l-57 745h83l38 -533l308 539h11l109 -546l238 540h91zM610 836l-34 -42l-162 106l52 65z" />
<glyph unicode="&#x1e81;" horiz-adv-x="594" d="M625 420l-229 -431h-13l-71 283l-182 -283h-13l-66 431h78l33 -274l170 276h13l65 -276l132 274h83zM407 516l-34 -42l-162 106l52 65z" />
<glyph unicode="&#x1e82;" horiz-adv-x="898" d="M987 733l-347 -745l-14 -2l-114 576l-328 -576l-18 2l-57 745h83l38 -533l308 539h11l109 -546l238 540h91zM715 890l-190 -96l-19 44l171 127z" />
<glyph unicode="&#x1e83;" horiz-adv-x="594" d="M625 420l-229 -431h-13l-71 283l-182 -283h-13l-66 431h78l33 -274l170 276h13l65 -276l132 274h83zM512 570l-190 -96l-19 44l171 127z" />
<glyph unicode="&#x1e84;" horiz-adv-x="898" d="M987 733l-347 -745l-14 -2l-114 576l-328 -576l-18 2l-57 745h83l38 -533l308 539h11l109 -546l238 540h91zM529 861q0 -19 -13.5 -33t-33.5 -14q-19 0 -32.5 14t-13.5 33t13.5 33t32.5 14q20 0 33.5 -14t13.5 -33zM702 861q0 -19 -13.5 -33t-32.5 -14q-20 0 -33.5 14 t-13.5 33t13.5 33t33.5 14q19 0 32.5 -14t13.5 -33z" />
<glyph unicode="&#x1e85;" horiz-adv-x="594" d="M625 420l-229 -431h-13l-71 283l-182 -283h-13l-66 431h78l33 -274l170 276h13l65 -276l132 274h83zM325 541q0 -19 -13.5 -33t-33.5 -14q-19 0 -32.5 14t-13.5 33t13.5 33t32.5 14q20 0 33.5 -14t13.5 -33zM498 541q0 -19 -13.5 -33t-32.5 -14q-20 0 -33.5 14t-13.5 33 t13.5 33t33.5 14q19 0 32.5 -14t13.5 -33z" />
<glyph unicode="&#x1ef2;" horiz-adv-x="584" d="M681 733l-326 -412l-63 -321h-79l63 324l-171 409h80l144 -343l261 343h91zM459 821l-34 -42l-162 106l52 65z" />
<glyph unicode="&#x1ef3;" horiz-adv-x="420" d="M454 420l-412 -636h-78l172 267l-89 369h78l63 -298l181 298h85zM311 516l-34 -42l-162 106l52 65z" />
<glyph unicode="&#x2002;" horiz-adv-x="500" />
<glyph unicode="&#x2003;" horiz-adv-x="1000" />
<glyph unicode="&#x2004;" horiz-adv-x="333" />
<glyph unicode="&#x2005;" horiz-adv-x="250" />
<glyph unicode="&#x2007;" horiz-adv-x="520" />
<glyph unicode="&#x2009;" horiz-adv-x="133" />
<glyph unicode="&#x200a;" horiz-adv-x="75" />
<glyph unicode="&#x2013;" horiz-adv-x="471" d="M434 276l-13 -68h-372l14 68h371z" />
<glyph unicode="&#x2014;" horiz-adv-x="721" d="M684 276l-13 -68h-622l14 68h621z" />
<glyph unicode="&#x2018;" horiz-adv-x="172" d="M200 586q0 -20 -14.5 -34.5t-34.5 -14.5q-21 0 -35 15.5t-14 39.5q0 84 129 160l11 -16q-61 -49 -84 -99q20 -4 31 -18t11 -33z" />
<glyph unicode="&#x2019;" horiz-adv-x="172" d="M230 690q0 -84 -129 -160l-11 16q61 49 84 99q-20 4 -31 18t-11 33q0 20 14.5 34.5t34.5 14.5q21 0 35 -15.5t14 -39.5z" />
<glyph unicode="&#x201a;" horiz-adv-x="172" d="M103 35q0 -84 -129 -160l-11 16q61 49 84 99q-20 4 -31 18.5t-11 32.5q0 20 14.5 34.5t34.5 14.5q21 0 35 -15.5t14 -39.5z" />
<glyph unicode="&#x201c;" horiz-adv-x="307" d="M345 586q0 -20 -14.5 -34.5t-34.5 -14.5q-21 0 -35 15.5t-14 39.5q0 84 129 160l11 -16q-61 -49 -84 -99q20 -4 31 -18t11 -33zM200 586q0 -20 -14.5 -34.5t-34.5 -14.5q-21 0 -35 15.5t-14 39.5q0 84 129 160l11 -16q-61 -49 -84 -99q20 -4 31 -18t11 -33z" />
<glyph unicode="&#x201d;" horiz-adv-x="317" d="M375 690q0 -84 -129 -160l-11 16q61 49 84 99q-20 4 -31 18t-11 33q0 20 14.5 34.5t34.5 14.5q21 0 35 -15.5t14 -39.5zM230 690q0 -84 -129 -160l-11 16q61 49 84 99q-20 4 -31 18t-11 33q0 20 14.5 34.5t34.5 14.5q21 0 35 -15.5t14 -39.5z" />
<glyph unicode="&#x201e;" horiz-adv-x="317" d="M248 35q0 -84 -129 -160l-11 16q61 49 84 99q-20 4 -31 18t-11 33q0 20 14.5 34.5t34.5 14.5q21 0 35 -15.5t14 -39.5zM103 35q0 -84 -129 -160l-11 16q61 49 84 99q-20 4 -31 18t-11 33q0 20 14.5 34.5t34.5 14.5q21 0 35 -15.5t14 -39.5z" />
<glyph unicode="&#x2020;" horiz-adv-x="417" d="M456 560l-14 -68h-139l-65 -336h-75l65 336h-143l13 68h143l34 173h75l-34 -173h140z" />
<glyph unicode="&#x2021;" horiz-adv-x="417" d="M461 588l-13 -68h-140l-29 -151h145l-14 -68h-144l-28 -145h-75l28 145h-139l14 68h138l30 151h-144l13 68h144l29 145h74l-28 -145h139z" />
<glyph unicode="&#x2022;" horiz-adv-x="380" d="M357 366q0 -58 -40 -98.5t-96 -40.5t-96 40.5t-40 98.5t40 98.5t96 40.5t96 -40.5t40 -98.5z" />
<glyph unicode="&#x2026;" horiz-adv-x="695" d="M137 41q0 -20 -14.5 -34.5t-34.5 -14.5t-34.5 14.5t-14.5 34.5t14.5 34.5t34.5 14.5t34.5 -14.5t14.5 -34.5zM367 41q0 -20 -14.5 -34.5t-34.5 -14.5t-34.5 14.5t-14.5 34.5t14.5 34.5t34.5 14.5t34.5 -14.5t14.5 -34.5zM597 41q0 -20 -14.5 -34.5t-34.5 -14.5 t-34.5 14.5t-14.5 34.5t14.5 34.5t34.5 14.5t34.5 -14.5t14.5 -34.5z" />
<glyph unicode="&#x2030;" horiz-adv-x="953" d="M345 466q0 -82 -50 -132q-38 -38 -93 -38q-48 0 -78 34t-30 86q0 82 50 132q38 38 93 38q48 0 78 -34t30 -86zM665 556l-591 -576l-39 40l590 576zM285 460q0 31 -14 50.5t-40 19.5t-45 -19q-32 -32 -32 -89q0 -31 14 -50.5t40 -19.5t45 19q32 32 32 89zM605 160 q0 -82 -50 -132q-38 -38 -93 -38q-48 0 -78 34t-30 86q0 82 50 132q38 38 93 38q48 0 78 -34t30 -86zM545 154q0 31 -14 50.5t-40 19.5t-45 -19q-32 -32 -32 -89q0 -31 14 -50.5t40 -19.5t45 19q32 32 32 89zM892 160q0 -82 -50 -132q-38 -38 -93 -38q-48 0 -78 34t-30 86 q0 82 50 132q38 38 93 38q48 0 78 -34t30 -86zM832 154q0 31 -14 50.5t-40 19.5t-45 -19q-32 -32 -32 -89q0 -31 14 -50.5t40 -19.5t45 19q32 32 32 89z" />
<glyph unicode="&#x2039;" horiz-adv-x="278" d="M257 336l-141 -168l78 -159h-79l-73 164l137 163h78z" />
<glyph unicode="&#x203a;" horiz-adv-x="278" d="M222 172l-137 -163h-78l141 168l-78 159h79z" />
<glyph unicode="&#x2044;" horiz-adv-x="576" d="M619 556l-591 -576l-39 40l590 576z" />
<glyph unicode="&#x20ac;" horiz-adv-x="636" d="M36 249h66q0 33 9 76h-60l13 68h71q42 88 125 140.5t176 52.5q51 0 100 -17.5t81 -41.5l-39 -60q-67 50 -155 50q-64 0 -118.5 -34t-86.5 -90h288l-13 -68h-303q-10 -36 -10 -76h298l-13 -66h-276q18 -60 67 -92t115 -32q72 0 148 42l22 -63q-90 -48 -183 -48 q-88 0 -158.5 52t-90.5 141h-85z" />
<glyph unicode="&#x2117;" horiz-adv-x="842" d="M615 448q0 -68 -51 -109t-125 -41q-11 0 -39 2l-23 -119h-65l73 371q57 5 91 5q66 0 102.5 -30t36.5 -79zM548 439q0 26 -19.5 42t-55.5 16q-22 0 -35 -2l-27 -139q24 -2 31 -2q46 0 76 23t30 62zM771 415q0 128 -76 204.5t-199 76.5q-155 0 -257.5 -110.5t-102.5 -267.5 q0 -128 77 -205t198 -77q154 0 257 111.5t103 267.5zM829 415q0 -112 -52.5 -209.5t-150 -158t-217.5 -60.5q-148 0 -239.5 91.5t-91.5 238.5q0 113 52.5 210.5t150.5 158t218 60.5q147 0 238.5 -92t91.5 -239z" />
<glyph unicode="&#x2120;" horiz-adv-x="499" d="M180 513q-45 0 -79 26l23 35q30 -21 57 -21q14 0 22 6.5t8 15.5q0 11 -6.5 17t-27.5 19q-23 15 -32.5 27t-9.5 31q0 29 21 48.5t56 19.5q41 0 67 -22l-22 -36q-23 19 -48 19q-28 0 -28 -21q0 -9 6 -15t23 -16q5 -3 7 -4q42 -25 42 -60q0 -28 -20.5 -48.5t-58.5 -20.5z M512 516h-43l20 117l-81 -88h-5l-46 88l-25 -117h-44l52 219h6l72 -131l120 131h6z" />
<glyph unicode="&#x2122;" horiz-adv-x="499" d="M512 516h-43l20 117l-81 -88h-5l-46 88l-25 -117h-44l52 219h6l72 -131l120 131h6zM270 692h-66l-34 -176h-45l34 176h-66l8 41h177z" />
<glyph unicode="&#x2190;" horiz-adv-x="711" d="M660 208h-499l165 -162l-49 -47l-240 237l3 12l332 237l35 -54l-222 -155h488z" />
<glyph unicode="&#x2192;" horiz-adv-x="711" d="M62 276h499l-165 162l49 47l240 -237l-3 -12l-332 -237l-35 54l222 155h-488z" />
<glyph unicode="&#x2212;" horiz-adv-x="420" d="M48 254l13 68h340l-13 -68h-340z" />
<glyph unicode="&#xe000;" horiz-adv-x="420" d="M0 420h420v-420h-420v420z" />
<glyph horiz-adv-x="793" d="M791 344q-28 -164 -127 -260t-253 -96q-140 0 -239.5 92.5t-99.5 236.5q0 121 60.5 220.5t156.5 153.5t202 54q66 0 132.5 -22t105.5 -53l-40 -63q-36 29 -93.5 47.5t-116.5 18.5q-137 0 -231.5 -105t-94.5 -248q0 -116 74.5 -188.5t199.5 -72.5q94 0 168 58.5t101 155.5 h-302l14 71h383z" />
<glyph horiz-adv-x="836" d="M842 745l-117 -745h-81l93 532l-319 -377h-10l-186 395l-114 -550h-81l172 745l14 2l217 -484l395 484z" />
<glyph horiz-adv-x="650" d="M553 457q0 101 -39.5 159t-118.5 58q-65 0 -120 -55q-57 -57 -90.5 -154t-33.5 -189q0 -101 39.5 -159t118.5 -58q65 0 120 55q57 57 90.5 154t33.5 189zM631 463q0 -108 -38 -216t-108 -178q-81 -81 -185 -81q-106 0 -166.5 77t-60.5 205q0 108 38 216t108 178 q81 81 185 81q106 0 166.5 -77t60.5 -205z" />
<glyph horiz-adv-x="397" d="M375 746l-145 -746h-76l125 643l-140 -50l-13 70l233 83h16z" />
<glyph horiz-adv-x="552" d="M530 560q0 -63 -28.5 -115.5t-92.5 -123.5q-69 -75 -249 -247h311l-13 -74h-452l-3 12q254 243 333 330q67 74 90.5 116.5t23.5 93.5t-37 84t-100 33q-84 0 -170 -58l-18 71q95 63 191 63q100 0 157 -54.5t57 -130.5z" />
<glyph horiz-adv-x="521" d="M574 733v-14l-309 -297q95 -15 149.5 -71.5t54.5 -130.5q0 -97 -72.5 -164.5t-185.5 -67.5q-108 0 -211 62l32 65q102 -57 179 -57q79 0 128.5 43t49.5 110q0 69 -56 113.5t-166 44.5q-12 0 -23 -1l-5 17l284 275h-300l14 73h437z" />
<glyph horiz-adv-x="590" d="M581 291l-12 -68h-130l-42 -223h-79l44 223h-338l4 19l476 498h37l-89 -449h129zM375 291l59 286l-269 -286h210z" />
<glyph horiz-adv-x="563" d="M555 733l-14 -73h-289l-46 -221h18q136 0 205 -61.5t69 -149.5q0 -103 -71.5 -171.5t-193.5 -68.5q-103 0 -201 52l32 66q102 -49 173 -49q84 0 133 44t49 115q0 77 -60.5 117.5t-165.5 40.5q-34 0 -67 -3l-5 9l73 353h361z" />
<glyph horiz-adv-x="583" d="M536 249q0 -106 -72 -183.5t-182 -77.5q-103 0 -161 69t-58 167q0 72 25.5 142t80.5 140.5t154.5 135.5t235.5 113l22 -70q-125 -36 -232.5 -111.5t-165.5 -167.5q55 56 147 56q93 0 149.5 -63.5t56.5 -149.5zM451 241q0 65 -40.5 110.5t-106.5 45.5q-80 0 -121.5 -53.5 t-41.5 -132.5q0 -63 43 -109t103 -46q75 0 119.5 54t44.5 131z" />
<glyph horiz-adv-x="527" d="M595 733l-457 -733h-84l418 661h-361l15 72h469z" />
<glyph horiz-adv-x="578" d="M280 -12q-102 0 -163.5 56t-61.5 137q0 69 43.5 124.5t111.5 79.5q-73 54 -73 139q0 92 67 156.5t162 64.5q91 0 148.5 -53t57.5 -134q0 -64 -37.5 -121t-100.5 -82q85 -56 85 -146q0 -92 -68 -156.5t-171 -64.5zM438 214q0 55 -41 91t-104 36q-66 0 -110 -47.5 t-44 -107.5q0 -56 38 -93t105 -37q68 0 112 46.5t44 111.5zM493 553q0 56 -37.5 90t-94.5 34q-68 0 -107 -45t-39 -110q0 -52 36.5 -86t96.5 -34q65 0 105 44.5t40 106.5z" />
<glyph horiz-adv-x="577" d="M568 511q0 -55 -14 -109.5t-49.5 -115t-89.5 -114t-140 -105t-195 -88.5l-21 70q138 42 244 118.5t163 179.5q-28 -31 -69 -48t-79 -17q-89 0 -152 59t-63 151q0 106 68 179.5t175 73.5q102 0 162 -68.5t60 -165.5zM493 525q0 61 -42 105.5t-104 44.5q-73 0 -117.5 -51.5 t-44.5 -133.5q0 -59 39.5 -98.5t102.5 -39.5q80 0 123 50.5t43 122.5z" />
<glyph horiz-adv-x="709" d="M763 702l-721 -720l-51 48l723 720z" />
<glyph horiz-adv-x="714" d="M696 292q-61 -70 -163 -165q51 -53 90 -84l-52 -52q-47 38 -98 93q-124 -89 -233 -89q-94 0 -148 49.5t-54 133.5q0 82 58.5 140.5t161.5 84.5q-28 62 -28 119q0 89 60 152.5t151 63.5q79 0 123 -46t44 -110q0 -77 -64.5 -135.5t-180.5 -87.5q54 -96 127 -183 q85 75 156 164zM431 131q-90 104 -146 212q-79 -21 -121.5 -63.5t-42.5 -96.5q0 -51 32.5 -83.5t96.5 -32.5q86 0 181 64zM336 418q91 23 142.5 64t51.5 98q0 41 -25 67.5t-64 26.5q-55 0 -94 -44t-39 -102q0 -54 28 -110z" />
<glyph horiz-adv-x="423" d="M441 534l-141 -168l78 -159h-79l-73 164l137 163h78zM296 534l-141 -168l78 -159h-79l-73 164l137 163h78z" />
<glyph horiz-adv-x="423" d="M404 370l-137 -163h-78l141 168l-78 159h79zM259 370l-137 -163h-78l141 168l-78 159h79z" />
<glyph horiz-adv-x="278" d="M297 534l-141 -168l78 -159h-79l-73 164l137 163h78z" />
<glyph horiz-adv-x="278" d="M261 370l-137 -163h-78l141 168l-78 159h79z" />
<glyph horiz-adv-x="326" d="M314 405l-13 -68h-226l14 68h225z" />
<glyph horiz-adv-x="471" d="M460 405l-13 -68h-372l14 68h371z" />
<glyph horiz-adv-x="721" d="M710 405l-13 -68h-622l14 68h621z" />
<glyph horiz-adv-x="353" d="M449 839l-422 -949h-75l422 949h75z" />
<glyph horiz-adv-x="337" d="M274 -110h-68l-88 949h67z" />
<glyph horiz-adv-x="252" d="M94 -110h-68l185 949h68z" />
<glyph horiz-adv-x="370" d="M486 794q-160 -70 -250.5 -208t-90.5 -294q0 -106 43 -200.5t129 -163.5l-42 -50q-99 84 -149 189.5t-50 220.5q0 175 103 328t286 237z" />
<glyph horiz-adv-x="370" d="M354 442q0 -175 -103 -328t-286 -237l-21 59q160 70 250.5 208t90.5 294q0 106 -43 200.5t-129 163.5l42 50q99 -84 149 -189.5t50 -220.5z" />
<glyph horiz-adv-x="293" d="M393 839l-12 -64h-121l-160 -822h121l-12 -63h-191l184 949h191z" />
<glyph horiz-adv-x="293" d="M337 839l-184 -949h-191l12 64h121l160 822h-121l12 63h191z" />
<glyph horiz-adv-x="295" d="M399 845l-13 -69h-18q-78 0 -95 -90l-40 -209q-9 -48 -27 -71t-63 -42q52 -22 52 -70q0 -14 -6 -43l-38 -192q-4 -17 -4 -36q0 -72 82 -72l-13 -68q-139 0 -139 132q0 25 6 54l39 203q3 15 3 25q0 40 -52 40h-24l13 63h23q35 0 52 15.5t23 49.5l44 224q30 156 168 156h27 z" />
<glyph horiz-adv-x="293" d="M-43 -117l13 69h18q78 0 95 90l40 209q9 48 27 71t63 42q-52 22 -52 70q0 14 6 43l38 192q4 17 4 36q0 72 -82 72l13 68q139 0 139 -132q0 -25 -6 -54l-39 -203q-3 -15 -3 -25q0 -40 52 -40h24l-13 -63h-23q-35 0 -52 -15.5t-23 -49.5l-44 -224q-30 -156 -168 -156h-27z " />
<glyph horiz-adv-x="879" d="M617 -1q-69 -11 -115 -11q-179 0 -293.5 91t-114.5 249q0 173 119.5 295t292.5 122q144 0 244 -87.5t100 -232.5q0 -104 -50.5 -176.5t-142.5 -72.5q-79 0 -102 61q-50 -53 -121 -53q-57 0 -91.5 26t-34.5 73q0 50 36 79.5t86 29.5q64 0 113 -33q6 30 6 42q0 60 -103 60 q-29 0 -59 -6l2 63q37 6 75 6q78 0 119.5 -29t41.5 -86q0 -20 -5 -43l-13 -64q-6 -28 8 -46.5t46 -18.5q42 0 70.5 31t39 71t10.5 84q0 121 -80 189.5t-203 68.5q-140 0 -236 -104t-96 -249q0 -131 95.5 -203.5t236.5 -72.5q54 0 114 12zM532 303q-38 33 -87 33 q-28 0 -44.5 -13t-16.5 -37q0 -23 18 -36t46 -13q52 0 81 53z" />
<glyph horiz-adv-x="842" d="M829 415q0 -112 -52.5 -209.5t-150 -158t-217.5 -60.5q-148 0 -239.5 91.5t-91.5 238.5q0 113 52.5 210.5t150.5 158t218 60.5q147 0 238.5 -92t91.5 -239zM771 415q0 128 -76 204.5t-199 76.5q-155 0 -257.5 -110.5t-102.5 -267.5q0 -128 77 -205t198 -77 q154 0 257 111.5t103 267.5zM605 453q0 -45 -26.5 -77t-68.5 -46l65 -149h-73l-51 133q-7 -1 -24 -1q-22 0 -36 1l-26 -133h-65l73 370q48 6 95 6q66 0 101.5 -28.5t35.5 -75.5zM537 445q0 25 -19 40t-53 15q-22 0 -39 -4l-24 -129q24 -2 32 -2q45 0 74 21.5t29 58.5z" />
<glyph horiz-adv-x="495" d="M415 815l-18 -77q59 -14 109 -51l-40 -62q-41 31 -86 43l-65 -275q31 -20 51 -35.5t41.5 -39t32.5 -53.5t11 -66q0 -83 -63.5 -146.5t-168.5 -64.5l-18 -78l-61 6l18 79q-85 17 -149 72l40 62q58 -50 125 -66l67 284q-42 27 -66 47t-45.5 58t-21.5 83q0 84 64 146t163 64 l18 75zM374 189q0 67 -78 122l-60 -253q65 6 101.5 44t36.5 87zM185 545q0 -65 75 -117l58 246q-62 -3 -97.5 -39.5t-35.5 -89.5z" />
<glyph horiz-adv-x="571" d="M619 671l-55 -60q-67 59 -141 59q-61 0 -99.5 -41t-53.5 -111l-24 -117h176l-14 -71h-176l-50 -258h321l-14 -72h-485l14 72h84l50 258h-83l2 9l96 69l22 112q21 102 84.5 163.5t166.5 61.5q101 0 179 -74z" />
<glyph horiz-adv-x="758" d="M79 487h88q51 116 158 187t227 71q65 0 127.5 -22.5t102.5 -53.5l-41 -65q-81 65 -201 65q-94 0 -168.5 -50.5t-115.5 -131.5h382l-13 -68h-396q-12 -47 -12 -93v-12h389l-13 -68h-366q22 -85 86 -134.5t152 -49.5q97 0 200 61l32 -66q-110 -69 -242 -69 q-112 0 -203 69.5t-114 188.5h-105l14 68h84v3q0 53 12 102h-78z" />
<glyph horiz-adv-x="635" d="M701 733l-272 -339h167l-13 -68h-209l-21 -105h211l-13 -68h-211l-29 -153h-76l29 153h-215l14 68h215l20 105h-217l14 68h176l-146 339h80l142 -344l258 344h96z" />
<glyph horiz-adv-x="428" d="M371 653l-17 -68q49 -9 96 -40l-37 -57q-37 23 -75 30l-73 -298h10q53 0 97 22l13 -62q-68 -27 -127 -27h-9l-17 -69l-68 5l19 78q-50 19 -81.5 63t-31.5 109q0 92 60 163.5t155 83.5l18 72zM144 342q0 -73 56 -104l68 278q-57 -14 -90.5 -63.5t-33.5 -110.5z" />
<glyph horiz-adv-x="749" d="M732 538l-15 -69h-135l-47 -206h136l-15 -68h-136l-42 -195h-74l43 195h-178l-43 -195h-74l43 195h-136l15 68h136l46 206h-136l14 69h136l43 195h75l-42 -195h176l44 195h74l-43 -195h135zM511 469h-184l-47 -206h185z" />
<glyph horiz-adv-x="693" d="M709 709l-141 -709h-80l130 658q-37 9 -94 15l-132 -673h-81l45 227q-118 2 -197.5 63.5t-79.5 162.5q0 125 106 208.5t269 83.5q118 0 255 -36zM444 677q-127 0 -202 -61.5t-75 -156.5q0 -74 56 -117t146 -45z" />
<glyph horiz-adv-x="516" d="M533 676l-50 -60q-59 54 -138 54q-43 0 -70.5 -20.5t-27.5 -51.5q0 -14 7 -26t15.5 -20.5t28 -19.5t29.5 -15.5l36 -16.5q31 -14 49.5 -24t40.5 -26t32.5 -36t10.5 -45q0 -45 -30 -80.5t-77 -55.5q13 -11 25 -33.5t12 -45.5q0 -70 -51.5 -118t-143.5 -48q-59 0 -114.5 24 t-93.5 65l55 57q29 -32 74 -52t86 -20q46 0 74 18.5t28 56.5q0 20 -9 36t-30 29.5t-36.5 21t-46.5 20.5q-32 14 -48.5 22.5t-39 24t-32.5 35.5t-10 45q0 48 26 80.5t79 57.5q-32 32 -32 72q0 72 51.5 118t140.5 46q49 0 98 -20t82 -49zM417 352q0 30 -36 52.5t-131 61.5 l-13 5q-31 -12 -50.5 -35.5t-19.5 -47.5q0 -11 4 -20.5t16 -19l20.5 -16t30.5 -16.5l32.5 -15t39.5 -17l36 -15q33 11 52 33.5t19 49.5z" />
<glyph horiz-adv-x="351" d="M378 637q0 -60 -42 -107.5t-106 -47.5q-47 0 -77 31t-30 77q0 60 41.5 107.5t106.5 47.5q47 0 77 -31t30 -77zM315 633q0 28 -13.5 44t-38.5 16q-31 0 -54.5 -29.5t-23.5 -68.5q0 -28 14 -44.5t39 -16.5q31 0 54 29.5t23 69.5z" />
<glyph horiz-adv-x="847" d="M369 587q0 43 -20 69t-56 26q-38 0 -65 -27q-43 -43 -43 -119q0 -43 20 -69t56 -26q38 0 65 27q43 43 43 119zM436 592q0 -103 -64 -167q-47 -47 -116 -47q-63 0 -100.5 43t-37.5 110q0 103 64 167q47 47 116 47q63 0 100.5 -43t37.5 -110zM718 197q0 43 -20 69t-56 26 q-38 0 -65 -27q-43 -43 -43 -119q0 -43 20 -69t56 -26q38 0 65 27q43 43 43 119zM785 202q0 -103 -64 -167q-47 -47 -116 -47q-63 0 -100.5 43t-37.5 110q0 103 64 167q47 47 116 47q63 0 100.5 -43t37.5 -110zM848 709l-750 -731l-44 45l750 731z" />
<glyph horiz-adv-x="1224" d="M369 587q0 43 -20 69t-56 26q-38 0 -65 -27q-43 -43 -43 -119q0 -43 20 -69t56 -26q38 0 65 27q43 43 43 119zM436 592q0 -103 -64 -167q-47 -47 -116 -47q-63 0 -100.5 43t-37.5 110q0 103 64 167q47 47 116 47q63 0 100.5 -43t37.5 -110zM718 197q0 43 -20 69t-56 26 q-38 0 -65 -27q-43 -43 -43 -119q0 -43 20 -69t56 -26q38 0 65 27q43 43 43 119zM785 202q0 -103 -64 -167q-47 -47 -116 -47q-63 0 -100.5 43t-37.5 110q0 103 64 167q47 47 116 47q63 0 100.5 -43t37.5 -110zM1095 197q0 43 -20 69t-56 26q-38 0 -65 -27q-43 -43 -43 -119 q0 -43 20 -69t56 -26q38 0 65 27q43 43 43 119zM1162 202q0 -103 -64 -167q-47 -47 -116 -47q-63 0 -100.5 43t-37.5 110q0 103 64 167q47 47 116 47q63 0 100.5 -43t37.5 -110zM848 709l-750 -731l-44 45l750 731z" />
<glyph horiz-adv-x="377" d="M293 714l-162 -177l-39 29l132 196zM446 703l-163 -178l-38 29l132 198z" />
<glyph horiz-adv-x="224" d="M293 714l-162 -177l-39 29l132 196z" />
<glyph horiz-adv-x="458" d="M438 405l-13 -68h-134l-28 -141h-72l28 141h-134l13 68h134l27 141h72l-27 -141h134z" />
<glyph horiz-adv-x="458" d="M85 337l13 68h340l-13 -68h-340z" />
<glyph horiz-adv-x="458" d="M284 234q0 -20 -14.5 -34.5t-34.5 -14.5q-21 0 -35.5 14.5t-14.5 34.5t14.5 35t35.5 15q20 0 34.5 -15t14.5 -35zM85 337l13 68h340l-13 -68h-340zM338 507q0 -20 -14.5 -34.5t-34.5 -14.5q-21 0 -35.5 14.5t-14.5 34.5t14.5 35t35.5 15q20 0 34.5 -15t14.5 -35z" />
<glyph horiz-adv-x="404" d="M367 333l-13 -68h-293l13 68h293zM395 477l-13 -68h-293l13 68h293z" />
<glyph horiz-adv-x="429" d="M376 531l40 -54l-132 -110l92 -114l-54 -46l-93 114l-134 -112l-40 54l132 111l-92 115l54 46l93 -116z" />
<glyph horiz-adv-x="394" d="M423 555l-255 -169l180 -211l-57 -43l-227 266l322 212z" />
<glyph horiz-adv-x="394" d="M386 345l-322 -213l-37 55l255 170l-180 211l57 42z" />
<glyph horiz-adv-x="493" d="M538 723l-33 -64q-45 15 -76 15q-65 0 -104.5 -36.5t-64.5 -116.5l-31 -100h149l-14 -72h-157l-109 -349h-79l108 349h-69l1 9l90 62l32 105q32 104 100 162t157 58q58 0 100 -22z" />
<glyph horiz-adv-x="711" d="M684 337h-499l165 -162l-49 -47l-240 237l3 12l332 237l35 -54l-222 -155h488z" />
<glyph horiz-adv-x="711" d="M87 405h499l-165 162l49 47l240 -237l-3 -12l-332 -237l-35 54l222 155h-488z" />
<glyph horiz-adv-x="694" d="M644 -200h-208l-8 14h-163l-8 -14h-207v303q14 0 23 9.5t9 22.5t-9.5 22.5t-22.5 9.5v554h100l30 79h334l29 -79h101v-921zM400 563v-172h15v78h38v14h-38v66h43v14h-58zM184 563v-172h15v79h47v-79h15v172h-15v-79h-47v79h-15zM460 394q8 -4 21 -4q31 0 31 36v137h-16 v-137q0 -22 -16 -22q-10 0 -20 6v-16zM349 438l-16 31q23 21 23 42q0 12 -7 21.5t-20 9.5q-12 0 -20 -9.5t-8 -21.5q0 -13 14 -39q-23 -18 -23 -45q0 -17 9 -28t22 -11q17 0 27 24h1l12 -24l11 8l-16 30q10 23 13 39l-13 3q-2 -9 -9 -30zM523 323v-46h8v13l7 7l16 -20h9 l-19 26l18 20h-10l-21 -24v24h-8zM488 292l10 -15h9l-12 17q10 3 10 15q0 5 -4.5 9.5t-11.5 4.5h-21v-46h8v15h12zM426 276q11 0 17.5 7t6.5 17q0 9 -7 16.5t-17 7.5t-16.5 -7.5t-6.5 -16.5q0 -10 6.5 -17t16.5 -7zM370 301l-13 22h-9l18 -29v-17h8v17l18 29h-9zM193 323 v-46h33v7h-25v13h22v7h-22v12h25v7h-33zM132 323v-46h8v32l25 -32h7v46h-8v-32l-25 32h-7zM241 323l15 -47h8l10 34h1l11 -34h8l14 47h-8l-10 -35h-1l-10 35h-8l-11 -35h-1l-10 35h-8zM327 479q-12 22 -12 32q0 19 14 19q13 0 13 -19q0 -15 -15 -32zM342 423q-6 -21 -18 -21 q-17 0 -17 27q0 18 15 33zM488 299h-12v17h11q10 0 10 -8q0 -9 -9 -9zM426 283q-15 0 -15 17q0 6 4.5 11.5t10.5 5.5q7 0 11.5 -5.5t4.5 -11.5q0 -7 -4.5 -12t-11.5 -5z" />
<glyph horiz-adv-x="224" d="M118 739l75 -14q-20 -120 -128 -189l-34 31q65 61 87 172z" />
<glyph horiz-adv-x="0" />
</font>
</defs>
</svg>
